Скачать через торрент музыку бесплатно без регистрации torrent

Если у вас наблюдаются проблемы со скриншотами, переходом по ссылками, скачиванием торрентов - проблемы в блокировщике рекламы AdBlock. #хорошегоДня!


Статистика раздачи
Размер:  324 MB   |    Зарегистрирован:  2 месяца 4 дня   |    .torrent скачан:  14 раз   |   
Раздают:  1  
   
Загрузка...
 
Автор Сообщение

Galfimbul

avatar Galfimbul


Fluke / Oto

Жанр: Techno, Downtempo, Big Beat
Носитель: CD
Год издания: 1995
Издатель (лейбл): Circa
Номер по каталогу: CIRCD31
Аудиокодек: FLAC (*.flac)
Тип рипа: tracks+.cue
Битрейт аудио: lossless
Продолжительность: 54:53
Источник (релизер): red
Наличие сканов в содержимом раздачи: нет
Треклист:

01. Fluke - Bullet (9:00)
02. Fluke - Tosh (4:30)
03. Fluke - Cut (6:31)
04. Fluke - Squirt (4:25)
05. Fluke - Wobbler (8:47)
06. Fluke - Freak (7:49)
07. Fluke - O.K. (7:49)
08. Fluke - Setback (6:02)
Exact Audio Copy V1.0 beta 3 from 29. August 2011

EAC extraction logfile from 6. October 2012, 17:45

Fluke / Oto

Used drive : PLEXTOR DVDR PX-L890SA Adapter: 3 ID: 0

Read mode : SecureUtilize accurate stream : YesDefeat audio cache : YesMake use of C2 pointers : No

Read offset correction : 6Overread into Lead-In and Lead-Out : NoFill up missing offset samples with silence : YesDelete leading and trailing silent blocks : NoNull samples used in CRC calculations : YesUsed interface : Native Win32 interface for Win NT & 2000Gap handling : Appended to previous track

Used output format : User Defined EncoderSelected bitrate : 128 kBit/sQuality : HighAdd ID3 tag : NoCommand line compressor : D:\iROpack\FLAC\flac.exeAdditional command line options : -8 -V -T "ARTIST=%artist%" -T "TITLE=%title%" -T "ALBUM=%albumtitle%" -T "DATE=%year%" -T "TRACKNUMBER=%tracknr%" -T "GENRE=%genre%" %source% -o %dest%

TOC of the extracted CD

Track | Start | Length | Start sector | End sector --------------------------------------------------------- 1 | 0:00.00 | 8:59.45 | 0 | 40469 2 | 8:59.45 | 4:29.40 | 40470 | 60684 3 | 13:29.10 | 6:30.72 | 60685 | 90006 4 | 20:00.07 | 4:24.68 | 90007 | 109874 5 | 24:25.00 | 8:47.17 | 109875 | 149416 6 | 33:12.17 | 7:49.18 | 149417 | 184609 7 | 41:01.35 | 7:49.37 | 184610 | 219821 8 | 48:50.72 | 6:01.65 | 219822 | 246961

Track 1

Filename R:\iRO\Rip\Oto\01-Fluke-Bullet.wav

Pre-gap length 0:00:02.00

Peak level 99.4 % Extraction speed 4.0 X Track quality 100.0 % Test CRC 7EBFDAFA Copy CRC 7EBFDAFA Accurately ripped (confidence 3) [8C28612F] (AR v2) Copy OK

Track 2

Filename R:\iRO\Rip\Oto\02-Fluke-Tosh.wav

Peak level 99.4 % Extraction speed 4.3 X Track quality 100.0 % Test CRC 48A3FCD9 Copy CRC 48A3FCD9 Accurately ripped (confidence 3) [BA864444] (AR v2) Copy OK

Track 3

Filename R:\iRO\Rip\Oto\03-Fluke-Cut.wav

Peak level 99.1 % Extraction speed 4.9 X Track quality 100.0 % Test CRC 4AD4F6A1 Copy CRC 4AD4F6A1 Accurately ripped (confidence 3) [FF974EB2] (AR v2) Copy OK

Track 4

Filename R:\iRO\Rip\Oto\04-Fluke-Squirt.wav

Peak level 99.4 % Extraction speed 4.1 X Track quality 99.9 % Test CRC 2DBC6D65 Copy CRC 2DBC6D65 Accurately ripped (confidence 3) [13115080] (AR v2) Copy OK

Track 5

Filename R:\iRO\Rip\Oto\05-Fluke-Wobbler.wav

Pre-gap length 0:00:01.10

Peak level 99.4 % Extraction speed 5.2 X Track quality 99.9 % Test CRC 12B7B728 Copy CRC 12B7B728 Accurately ripped (confidence 3) [230AF0FA] (AR v2) Copy OK

Track 6

Filename R:\iRO\Rip\Oto\06-Fluke-Freak.wav

Pre-gap length 0:00:00.47

Peak level 99.4 % Extraction speed 6.2 X Track quality 100.0 % Test CRC EAD5B8CE Copy CRC EAD5B8CE Accurately ripped (confidence 3) [0B7E0E89] (AR v2) Copy OK

Track 7

Filename R:\iRO\Rip\Oto\07-Fluke-O.K..wav

Pre-gap length 0:00:00.73

Peak level 98.5 % Extraction speed 6.5 X Track quality 100.0 % Test CRC EC718EF5 Copy CRC EC718EF5 Accurately ripped (confidence 3) [91A2C304] (AR v2) Copy OK

Track 8

Filename R:\iRO\Rip\Oto\08-Fluke-Setback.wav

Pre-gap length 0:00:01.10

Peak level 98.4 % Extraction speed 5.8 X Track quality 99.9 % Test CRC 21DC125B Copy CRC 21DC125B Accurately ripped (confidence 3) [A87E4E2E] (AR v2) Copy OK

All tracks accurately ripped

No errors occurred

End of status report

---- CUETools DB Plugin V2.1.3

[CTDB TOCID: fwcwO6jq_2wlDpRvqXaLPdlBHTM-] found, Submit result: fwcwO6jq_2wlDpRvqXaLPdlBHTM- has been confirmed[323ef5c9] (51/53) Accurately ripped[2c03b0ba] (01/53) No match[c40c2f74] (01/53) No match

==== Log checksum 48FB73071E04131A64ECDA26BDD27A269C0365EE83F73451A0E965CBC4493C96 ====
REM GENRE ElectronicREM DATE 1995REM DISCID 630CDC08REM COMMENT "ExactAudioCopy v1.0b3"FILE "01-Fluke-Bullet.wav" WAVE TRACK 01 AUDIO INDEX 01 00:00:00FILE "02-Fluke-Tosh.wav" WAVE TRACK 02 AUDIO INDEX 01 00:00:00FILE "03-Fluke-Cut.wav" WAVE TRACK 03 AUDIO INDEX 01 00:00:00FILE "04-Fluke-Squirt.wav" WAVE TRACK 04 AUDIO INDEX 01 00:00:00 TRACK 05 AUDIO INDEX 00 04:23:58FILE "05-Fluke-Wobbler.wav" WAVE INDEX 01 00:00:00 TRACK 06 AUDIO INDEX 00 08:46:45FILE "06-Fluke-Freak.wav" WAVE INDEX 01 00:00:00 TRACK 07 AUDIO INDEX 00 07:48:20FILE "07-Fluke-O.K..wav" WAVE INDEX 01 00:00:00 TRACK 08 AUDIO INDEX 00 07:48:27FILE "08-Fluke-Setback.wav" WAVE INDEX 01 00:00:00


Трекер:  [ 13-Авг-2017 17:01 ]

  

Скачать .torrent

Размер .torrent файла 13 KB


Размер: 324 MB
Хэш (hash) релиза: c5ba9737e33c9e1f7cb76088ee37cac205246527

Еще никто не оставлял запись к записи скачать торрент . Будь первым!

!Обратная связь