Скачать через торрент Семь смертных грехов: Знамение священной войны Nanatsu no Taizai: Seisen no Shirushi бесплатно Аниме Все серии на русском torrent

Если у вас наблюдаются проблемы со скриншотами, переходом по ссылками, скачиванием торрентов - проблемы в блокировщике рекламы AdBlock. #хорошегоДня!


Статистика раздачи
Размер:  2.29 GB   |    Зарегистрирован:  10 дней   |    .torrent скачан:  18 раз   |   
Раздают:  1  
   
Загрузка...
 
Автор Сообщение

Galfimbul

avatar Galfimbul


Год выпуска: 2017
Страна: Япония
Жанр: комедия, фэнтези
Продолжительность: спешл, 4 эп. по 24 мин.
Выпуск: c 28.08.2016 по 18.09.2016Перевод:

русские субтитры (полные/вспомогательные)
перевод: Anku, редактура: mutagenb

Режиссер: Токоро Томокадзу
Студия: A-1 Pictures Inc.Описание:
Земли старой Британии еще помнят древнее волшебство, в тайных местах порхают феи и водятся чудовища. Но в королевстве Лионесс главными чудищами считают Семь Смертных грехов – семерку великих воинов, что когда-то верно служили людям, а потом начали убивать, чтобы свергнуть короля и захватить власть. Орден Святых рыцарей прогнал предателей и с тех пор хранит покой королевства, но сбежавшие недобитки где-то затаились, потому орден вынужден усиливать бдительность, набирать людей и строить новые крепости.

А вот юная Элизабет, младшая принцесса Лионесса, рассказала своему спасителю, молодому хозяину бара «Кабанья шляпа», другую историю. Оказывается, Святые рыцари много лет творят полный произвол, а недавно отправили за решетку марионетку-короля с семьей – ей самой едва удалось бежать. «Святош» все боятся, так что принцесса решила искать Семерых – больше ей никто не поможет. Что ж, впереди у отважной девушки много интересного – роль боевой официантки, посещение Города Мертвых, злодеи в белом и гонки на боевой свинье. Подумаешь, Семь грехов! Не согрешишь – не покаешься, не покаешься – не спасешься!
© Hollow, World ArtИнформационные ссылки: AniDB || World Art || MALКачество: BDRip
Энкод: Winter - RG Pantheon
Тип видео: без хардсаба, без линковки
Формат: mkv
Видео: x264 (Hi10p), 1280x720, ~2800 Kbps, 23.976 fps
Аудио JAP: Vorbis, 48000Hz, ~256 Kbps, 2ch
Аудио RUS 1-2: AC3, 48000Hz, ~192Kbps, 2ch (внешними файлами)
одноголосая (м) от JAM (AniDub)

двухголосая (м/ж) от Soer & MezIdA (DeadLine Studio)
1. The Dark Dream Begins
2. Our Fighting Festival
3. In Pursuit of First Love
4. The Shape of Love
...5305723
...5440178
- BDRip
Общее
Уникальный идентификатор : 171350555236482941204564122930584081918 (0x80E8EAA1D2D75CF9982B14117EEDD5FE)
Полное имя : T:\Anime\720p\Nanatsu no Taizai - Seisen no Shirushi [BD] [720p]\[W] Nanatsu no Taizai - Seisen no Shirushi 2 [BDrip 1280x720 x264 Vorbis].mkv
Формат : Matroska
Версия формата : Version 2
Размер файла : 555 Мбайт
Продолжительность : 24 м. 15 с.
Режим общего битрейта : Переменный
Общий поток : 3201 Кбит/сек
Дата кодирования : UTC 2017-08-13 10:46:54
Программа кодирования : mkvmerge v2.9.8 ('C'est le bon') built on Aug 13 2009 12:49:06
Библиотека кодирования : libebml v0.7.7 + libmatroska v0.8.1

Видео
Идентификатор : 1
Формат : AVC
Формат/Информация : Advanced Video Codec
Профиль формата : High 10@L4.1
Параметр CABAC формата : Да
Параметр RefFrames формата : 9 кадров
Идентификатор кодека : V_MPEG4/ISO/AVC
Продолжительность : 24 м. 15 с.
Битрейт : 2882 Кбит/сек
Ширина : 1280 пикселей
Высота : 720 пикселей
Соотношение сторон : 16:9
Режим частоты кадров : Постоянный
Частота кадров : 23,976 (24000/1001) кадра/сек
Цветовое пространство : YUV
Субдискретизация насыщенности : 4:2:0
Битовая глубина : 10 бит
Тип развёртки : Прогрессивная
Бит/(Пиксели*Кадры) : 0.130
Размер потока : 500 Мбайт (90%)
Библиотека кодирования : x264 core 148 r2694 3b70645
Настройки программы : cabac=1 / ref=9 / deblock=1:-2:-2 / analyse=0x3:0x133 / me=umh / subme=9 / psy=1 / psy_rd=0.90:0.00 / mixed_ref=1 / me_range=24 / chroma_me=1 / trellis=2 / 8x8dct=1 / cqm=0 / deadzone=21,11 / fast_pskip=1 / chroma_qp_offset=-2 / threads=6 / lookahead_threads=1 / sliced_threads=0 / nr=0 / decimate=0 / interlaced=0 / bluray_compat=0 / constrained_intra=0 / bframes=8 / b_pyramid=2 / b_adapt=2 / b_bias=0 / direct=1 / weightb=1 / open_gop=0 / weightp=2 / keyint=250 / keyint_min=23 / scenecut=40 / intra_refresh=0 / rc=crf / mbtree=0 / crf=15.7 / qcomp=0.70 / qpmin=9 / qpmax=40 / qpstep=4 / ip_ratio=1.40 / pb_ratio=1.30 / aq=1:0.90
Default : Нет
Forced : Нет

Аудио
Идентификатор : 2
Формат : Vorbis
Параметр Floor формата : 1
Идентификатор кодека : A_VORBIS
Продолжительность : 24 м. 15 с.
Вид битрейта : Переменный
Битрейт : 256 Кбит/сек
Каналы : 2 канала
Частота : 48,0 КГц
BitDepth_Detected/String : 16 бит
Метод сжатия : С потерями
Размер потока : 44,4 Мбайт (8%)
Библиотека кодирования : libVorbis (??] (20150105 (??])
Язык : Japanese
Default : Да
Forced : Нет
Выбор видео, перевода, озвучки, а также типа сборки материала осуществляется релизером и не подлежит обсуждению. Если вы считаете, что раздаваемый материал противоречит правилам раздела "Аниме" rutracker.org, сообщите об этом одному из модераторов раздела.

В случае появления нового материала или же лучшего по качеству материала релизер оставляет за собой право обновить раздачу. В этом случае вам необходимо ознакомиться с изменениями (добавлениями) и перекачать торрент.

Данный релиз предназначен для просмотра на ПК. Воспроизведение на иных проигрывателях не гарантируется. Для просмотра рекомендуется Media Player Classic с установленным пакетом кодеков K-Lite.

Данный релиз содержит 10-битное видео (Hi10p). Для корректного воспроизведения обязательно используйте кодеки, поддерживающие 10-битное видео.
Обсудить частные случаи проблем с воспроизведением и получить дополнительную информацию можно здесь.

Данный релиз предназначен для просмотра с внешними субтитрами и внешними звуковыми дорожками.

Для просмотра с внешней звуковой дорожкой нужно:
перекинуть файлы .mka из папки "RUS Sound [<автор(ы) озвучки>]" в одну папку с видео и переключить звуковую дорожку в плеере при просмотре. Как это сделать в разных плеерах подробно описано здесь.
Для просмотра с субтитрами нужно:
перекинуть файлы .ass из папки "RUS Subtitles [<автор(ы) перевода>]" в одну папку с видео - плеер подгрузит их автоматически при открытии видео.

Если у вас возникли проблемы с просмотром, не связанные с описанным выше, сообщите о них автору раздачи посредством сообщения в теме или ЛС Aglenn.


Трекер:  [ 13-Авг-2017 16:01 ]

  

Скачать .torrent

Размер .torrent файла 14 KB


Размер: 2.29 GB
Хэш (hash) релиза: 90f5cde30bb9bb3713e01bf597743df7aa840e03
Подписка на обновления:

Торренты, похожие на Семь смертных грехов: Знамение священной войны Nanatsu no Taizai: Seisen no Shirushi скачать торрент

Форум Название Автор Размер S L Добавлен
Аниме | HD Rips ·· Семь смертных грехов: Знамение священной войны / Nanatsu no Taizai: Seisen no Shirushi [Special] [4 из 4] [Без хардсаба] [RUS(ext), JAP+SUB] [2016, приключения, фэнтези, сёнен, BDRemuz] [1080p] Galfimbul 3043259014428.34 GB 0 0 1502591473

05:31

13-Авг-17

Аниме | HD Rips ·· Семь смертных грехов: Знамение священной войны / Nanatsu no Taizai: Seisen no Shirushi [Special] [4 из 4] [Без хардсаба] [RUS(int), JAP+SUB] [2016, экшен, приключения, фэнтези, сёнен, HDTVRip] [720p] Galfimbul 18055496151.68 GB 0 0 1478625077

20:11

8-Ноя-16

Аниме | HD Rips ·· Семь смертных грехов: Знамение священной войны / Nanatsu no Taizai: Seisen no Shirushi [Special] [2 из 4] [Без хардсаба] [RUS(int), JAP+SUB] [2016, экшен, приключения, фэнтези, сёнен, HDTVRip] [720p] Galfimbul 946130577902 MB 0 0 1478104880

19:41

2-Ноя-16

Аниме | HD Rips ·· Семь смертных грехов: Знамение священной войны / Nanatsu no Taizai: Seisen no Shirushi [Special] [4 из 4] [Без хардсаба] [JAP, SUB] [2016 г., экшен, приключения, фэнтези, сёнен, HDTVRip] [720p] Galfimbul 16736785481.56 GB 0 0 1474283285

14:08

19-Сен-16

Аниме | HD Rips ·· Семь смертных грехов: Знамение священной войны / Nanatsu no Taizai: Seisen no Shirushi [Special] [1-3 из 4] [Без хардсаба] [JAP, SUB] [2016 г., экшен, приключения, фэнтези, сёнен, HDTVRip] [720p] Galfimbul 12915717621.2 GB 0 0 1473713785

23:56

12-Сен-16

Аниме | HD Rips ·· Семь смертных грехов: Знамение священной войны / Nanatsu no Taizai: Seisen no Shirushi [Special] [1-2 из 4] [Без хардсаба] [JAP, SUB] [2016 г., экшен, приключения, фэнтези, сёнен, HDTVRip] [720p] Galfimbul 879984312839 MB 0 0 1473166602

15:56

6-Сен-16

Аниме | HD Rips ·· Семь смертных грехов: Знамение священной войны / Nanatsu no Taizai: Seisen no Shirushi [Special] [1 из 4] [Без хардсаба] [JAP, SUB] [2016 г., экшен, приключения, фэнтези, сёнен, HDTVRip] [720p] Galfimbul 422598993403 MB 0 0 1472428644

02:57

29-Авг-16

Еще никто не оставлял запись к записи скачать торрент Семь смертных грехов: Знамение священной войны Nanatsu no Taizai: Seisen no Shirushi . Будь первым!

!Обратная связь