Скачать через торрент Шальная карта Козырь Фильм бесплатно в хорошем качестве torrent

Скачивайте на UnionPeer.org фильмы через торрент без регистрации. Новинки кино в хорошем качестве через торрент. На UnionPeer.org можно скачать через торрент фильмы 2014 и 2015 годов. Самые новые фильмы.

Скачать торрент Шальная карта Козырь бесплатно через .torrent фильм мультфильм сериал

Если у вас наблюдаются проблемы со скриншотами, переходом по ссылками, скачиванием торрентов - проблемы в блокировщике рекламы AdBlock. #хорошегоДня!


Статистика раздачи
Размер:  1.7 GB   |    Зарегистрирован:  2 месяца 3 дня   |    .torrent скачан:  36 раз   |   
Раздают:  1  
   
Загрузка...
 
Автор Сообщение

Galfimbul

avatar Galfimbul


Шальная карта / Козырь / Wild Card
Год выпуска: 2015
Выпущено: США
Жанр: боевик, триллер, драма, криминал
Продолжительность: 01:32:21
Перевод: Профессиональный (многоголосый, закадровый) iTunes
+ Оригинальная звуковая дорожка (отдельно)
Субтитры: Русские, английские (полные, SDH) (внешние srt*)Режиссер: Саймон Уэст / Simon West
В ролях: Джейсон Стэйтем, Майкл Ангарано, Майло Вентимилья, Доминик Гарсиа-Лоридо, Энн Хеч, София Вергара, Макс Казелла, Джейсон Александер, Хоуп Дэвис, Стэнли Туччи
О фильме: Главный герой — бывший военный Ник Уайлд — работает в Лас-Вегасе охранником, мечтает накопить денег и навсегда уехать на остров Корсика. Но Ник соглашается помочь давней знакомой Холли, постоянно подвергающейся насилию со стороны сына крупного гангстера, из-за чего его отъезд откладывается.

Релиз:
Автор: sociolog_melvas
Качество: BDRip (источник: arxivariys / BD-Remux / 1080p)
Формат: AVI
Видео: 720x304 (2.37:1), 23,976 fps, XviD build 65 ~1856 kbps avg, 0.35 bit/pixel
Аудио: #01 48 kHz, AC3 Dolby Digital, 3/2 (L,C,R,l,r) + LFE ch, ~384.00 kbps avg
Аудио: #02 48 kHz, AC3 Dolby Digital, 3/2 (L,C,R,l,r) + LFE ch, ~384.00 kbps avg (отдельно)
Размер: 1486.30 Mb (1/3 DVD)
Скачать: Семпл
Формат : AVI
Формат/Информация : Audio Video Interleave
Размер файла : 1,45 Гбайт
Продолжительность : 1 ч. 32 м.
Общий поток : 2250 Кбит/сек
Программа кодирования : VirtualDubMod 1.5.10.2 (build 2540/release)
Библиотека кодирования : VirtualDubMod build 2540/release

Видео
Идентификатор : 0
Формат : MPEG-4 Visual
Профиль формата : Advanced Simple@L5
Параметр BVOP формата : 1
Параметр QPel формата : Нет
Параметр GMC формата : Без точки перехода
Параметр матрицы формата : Выборочная
Идентификатор кодека : XVID
Идентификатор кодека/Подсказка : XviD
Продолжительность : 1 ч. 32 м.
Битрейт : 1857 Кбит/сек
Ширина : 720 пикселей
Высота : 304 пикселя
Соотношение сторон : 2,35:1
Частота кадров : 23,976 кадра/сек
Цветовое пространство : YUV
Субдискретизация насыщенности : 4:2:0
Битовая глубина : 8 бит
Тип развёртки : Прогрессивная
Метод сжатия : С потерями
Бит/(Пиксели*Кадры) : 0.354
Размер потока : 1,20 Гбайт (83%)
Библиотека кодирования : XviD 65

Аудио
Идентификатор : 1
Формат : AC-3
Формат/Информация : Audio Coding 3
Расширение режима : CM (complete main)
Параметр Endianness формата : Big
Идентификатор кодека : 2000
Продолжительность : 1 ч. 32 м.
Вид битрейта : Постоянный
Битрейт : 384 Кбит/сек
Каналы : 6 каналов
Расположение каналов : Front: L C R, Side: L R, LFE
Частота : 48,0 КГц
Битовая глубина : 16 бит
Метод сжатия : С потерями
Размер потока : 254 Мбайт (17%)
Выравнивание : Разделение по промежуткам
Продолжительность промежутка : 42 мс. (1,00 видеокадр)
Время предзагрузки промежутка : 500 мс.


Трекер:  [ 13-Авг-2017 16:01 ]

  

Скачать .torrent

Размер .torrent файла 18 KB


Размер: 1.7 GB
Хэш (hash) релиза: 50256af22da1bae3622e48fb1ef356e3c66699a7
Подписка на обновления:

Торренты, похожие на Шальная карта Козырь скачать торрент

Форум Название Автор Размер S L Добавлен
Зарубежные фильмы до 2016 ·· Шальная карта / Козырь / Wild Card (Саймон Уэст / Simon West) [2015, США, боевик, триллер, драма, криминал, HDRip] [Расширенная версия / Extended Cut] AVO (Гаврилов) Galfimbul 15657594881.46 GB 0 0 1496239598

17:06

31-Май-17

Еще никто не оставлял запись к записи скачать торрент Шальная карта Козырь . Будь первым!

!Обратная связь