Скачать через торрент Невыносимая жестокость Intolerable Cruelty Фильм бесплатно в хорошем качестве torrent

Скачивайте на UnionPeer.org фильмы через торрент без регистрации. Новинки кино в хорошем качестве через торрент. На UnionPeer.org можно скачать через торрент фильмы 2014 и 2015 годов. Самые новые фильмы.

Скачать торрент Невыносимая жестокость Intolerable Cruelty бесплатно через .torrent фильм мультфильм сериал

Если у вас наблюдаются проблемы со скриншотами, переходом по ссылками, скачиванием торрентов - проблемы в блокировщике рекламы AdBlock. #хорошегоДня!


Статистика раздачи
Размер:  4.24 GB   |    Зарегистрирован:  2 месяца 7 дней   |    .torrent скачан:  13 раз   |   
Раздают:  1  
   
Загрузка...
 
Автор Сообщение

Galfimbul

avatar Galfimbul


Невыносимая жестокость / Intolerable Cruelty

Страна: США
Жанр: мелодрама, комедия, криминал
Год выпуска: 2003
Продолжительность: 01:35:29

Перевод: Профессиональный (дублированный)
Субтитры: английские, испанские, русские, португальские
Оригинальная аудиодорожка: английская

Режиссер: Джоэл Коэн, Итан Коэн / Joel Coen, Ethan Coen

В ролях: Джордж Клуни, Кэтрин Зета-Джонс, Джеффри Раш, Седрик «Развлекатель», Эдвард Херрманн, Пол Адельштейн, Ричард Дженкинс, Билли Боб Торнтон, Джулия Даффи, Джонатан Хэдари

Описание: У знаменитого адвоката Майлза Масси есть все — слава, деньги, благодарная клиентура и брачный контракт, названный в его честь. Но Майлз чувствует, что ему не хватает поединка с достойным врагом. Судьба сводит его с соблазнительной Мэрилин Рексрот, брачной аферисткой, которая собирается развестись с его клиентом и при этом значительно пополнить свой банковский счет.
И пусть в этот раз ей не повезло — она тут же находит новую жертву, нефтяного магната Дойла, и начинает игру, в которой Майлзу придется еще не раз удивляться…

Меню: есть, английское, анимированное

Тип релиза: DVD5
Контейнер: DVD-Video

Видео: PAL 16:9 (720x576(0.333)) MPEG Video, 25,000 кадр/сек, 3449 Кбит/сек
Аудио: English (Dolby AC-3, 6ch) 384 Кбит/сек, 48.0 КГц
Аудио 2: Spanish (Dolby AC-3, 6ch) 384 Кбит/сек, 48.0 КГц
Аудио 3: Russian (DTS, 6ch) 768 Кбит/сек, 48.0 КГц
Аудио 4: Russian (Dolby AC-3, 6ch) 448 Кбит/сек, 48.0 КГц
Фейерверк
Сцены у моря
Малена
Счастье на час
Пудра
Видео взято из иностранного DVD.
Доп. материалы без перевода и русских субтитров.
Общее
Полное имя : Intolerable Cruelty - 16x9\VTS_01_2.VOB
Формат : MPEG-PS
Размер файла : 1024 Мбайт
Продолжительность : 25 м. 53 с.
Режим общего битрейта : Переменный
Общий поток : 5530 Кбит/сек

Видео
Идентификатор : 224 (0xE0)
Формат : MPEG Video
Версия формата : Version 2
Профиль формата : Main@Main
Параметр BVOP формата : Да
Параметр матрицы формата : Выборочная
Параметр GOP формата : Variable
Продолжительность : 25 м. 53 с.
Вид битрейта : Переменный
Битрейт : 3449 Кбит/сек
Максимальный битрейт : 7958 Кбит/сек
Ширина : 720 пикселей
Высота : 576 пикселей
Соотношение сторон : 16:9
Частота кадров : 25,000 кадров/сек
Стандарт вещания : PAL
Цветовое пространство : YUV
Субдискретизация насыщенности : 4:2:0
Битовая глубина : 8 бит
Тип развёртки : Прогрессивная
Метод сжатия : С потерями
Бит/(Пиксели*Кадры) : 0.333
Временной код первого кадра : 00:26:04:04
Оригинал временного кода : Group of pictures header
Размер потока : 639 Мбайт (62%)

Аудио #1
Идентификатор : 189 (0xBD)-128 (0x80)
Формат : AC-3
Формат/Информация : Audio Coding 3
Параметр Endianness формата : Big
Режим смешивания : DVD-Video
Продолжительность : 25 м. 53 с.
Вид битрейта : Постоянный
Битрейт : 384 Кбит/сек
Каналы : 6 каналов
Расположение каналов : Front: L C R, Side: L R, LFE
Частота : 48,0 КГц
Частота кадров : 31,250 кадров/сек (1536 spf)
Битовая глубина : 16 бит
Метод сжатия : С потерями
Задержка видео : -480 мс.
Размер потока : 71,1 Мбайт (7%)
ServiceKind/String : Complete Main

Аудио #2
Идентификатор : 189 (0xBD)-129 (0x81)
Формат : AC-3
Формат/Информация : Audio Coding 3
Параметр Endianness формата : Big
Режим смешивания : DVD-Video
Продолжительность : 25 м. 53 с.
Вид битрейта : Постоянный
Битрейт : 384 Кбит/сек
Каналы : 6 каналов
Расположение каналов : Front: L C R, Side: L R, LFE
Частота : 48,0 КГц
Частота кадров : 31,250 кадров/сек (1536 spf)
Битовая глубина : 16 бит
Метод сжатия : С потерями
Задержка видео : -480 мс.
Размер потока : 71,1 Мбайт (7%)
ServiceKind/String : Complete Main

Аудио #3
Идентификатор : 189 (0xBD)-131 (0x83)
Формат : AC-3
Формат/Информация : Audio Coding 3
Параметр Endianness формата : Big
Режим смешивания : DVD-Video
Продолжительность : 25 м. 53 с.
Вид битрейта : Постоянный
Битрейт : 448 Кбит/сек
Каналы : 6 каналов
Расположение каналов : Front: L C R, Side: L R, LFE
Частота : 48,0 КГц
Частота кадров : 31,250 кадров/сек (1536 spf)
Битовая глубина : 16 бит
Метод сжатия : С потерями
Задержка видео : -512 мс.
Размер потока : 83,0 Мбайт (8%)
ServiceKind/String : Complete Main

Аудио #4
Идентификатор : 189 (0xBD)-138 (0x8A)
Формат : DTS
Формат/Информация : Digital Theater Systems
Режим : 16
Параметр Endianness формата : Big
Режим смешивания : DVD-Video
Продолжительность : 25 м. 53 с.
Вид битрейта : Постоянный
Битрейт : 755 Кбит/сек
Каналы : 6 каналов
Расположение каналов : Front: L C R, Side: L R, LFE
Частота : 48,0 КГц
Частота кадров : 93,750 кадра/сек (512 spf)
Битовая глубина : 24 бит
Метод сжатия : С потерями
Задержка видео : -555 мс.
Размер потока : 140 Мбайт (14%)

Текст #1
Идентификатор : 189 (0xBD)-32 (0x20)
Формат : RLE
Формат/Информация : Run-length encoding
Режим смешивания : DVD-Video
Задержка видео : 1 с. 280 мс.

Текст #2
Идентификатор : 189 (0xBD)-33 (0x21)
Формат : RLE
Формат/Информация : Run-length encoding
Режим смешивания : DVD-Video
Задержка видео : 1 с. 280 мс.

Текст #3
Идентификатор : 189 (0xBD)-34 (0x22)
Формат : RLE
Формат/Информация : Run-length encoding
Режим смешивания : DVD-Video
Задержка видео : 1 с. 360 мс.

Текст #4
Идентификатор : 189 (0xBD)-35 (0x23)
Формат : RLE
Формат/Информация : Run-length encoding
Режим смешивания : DVD-Video
Задержка видео : 1 с. 280 мс.


Трекер:  [ 13-Авг-2017 15:36 ]

  

Скачать .torrent

Размер .torrent файла 12 KB


Размер: 4.24 GB
Хэш (hash) релиза: 950c09ca8f6d67b3e0f18d8152e252a67500d502
Подписка на обновления:

Торренты, похожие на Невыносимая жестокость Intolerable Cruelty скачать торрент

Форум Название Автор Размер S L Добавлен
Зарубежные фильмы до 2016 ·· Невыносимая жестокость / Intolerable Cruelty (Joel Coen (Джоэл Коэн)) [2003, США, комедия, мелодрама, DVDRip] Dub 4:3 Galfimbul 15261777921.42 GB 0 0 1498399405

17:03

25-Июн-17

Зарубежные фильмы до 2016 ·· Невыносимая жестокость / Intolerable Cruelty (Джоэл Коэн / Joel Coen, Итан Коэн / Ethan Coen) [2003, США, Комедия, мелодрама, криминал, BDRip-AVC] Dub + Sub Rus, Eng + Original Eng Galfimbul 23428303912.18 GB 0 0 1409055287

15:14

26-Авг-14

Зарубежные фильмы до 2016 ·· Невыносимая жестокость / Intolerable Cruelty (Джоэл Коэн / Joel Coen, Итэн Коэн / Ethan Coen) [2003 г., США, комедия, мелодрама, BDRip-AVC] Dub + Original (Eng) + Subs (rus, eng) Galfimbul 31262518542.91 GB 0 0 1354355400

12:50

1-Дек-12

Зарубежные фильмы до 2016 ·· Невыносимая жестокость / Intolerable Cruelty (Джоэл Коэн / Joel Coen, Итэн Коэн / Ethan Coen) [2003, США, комедия, мелодрама, криминал, BDRip 1080p] Dub + original + sub MaTaDoRe 1076985642310.03 GB 0 0 1292011672

23:07

10-Дек-10

Зарубежные фильмы до 2016 ·· Невыносимая жестокость / Intolerable Cruelty (Джоэл Коэн / Joel Coen, Итэн Коэн / Ethan Coen) [2003, США, комедия, мелодрама, криминал, BDRip 720p] Dub + original + sub MaTaDoRe 59365854735.53 GB 0 0 1291151562

00:12

1-Дек-10

Зарубежные фильмы до 2016 ·· Невыносимая жестокость / Intolerable Cruelty (Джоэл Коэн, Итэн Коэн) [1995 г., Мелодрама, Комедия, BDRip] Bot 15662370341.46 GB 0 0 1291027712

13:48

29-Ноя-10

Зарубежные фильмы до 2016 ·· Невыносимая жестокость / Intolerable Cruelty (Джоэл Коэн / Joel Coen, Итэн Коэн / Ethan Coen) [2003 г., США, Комедия, мелодрама, криминал, Blu-Ray disc, 1080p] Dub + Orig + Subs MaTaDoRe 3269877342530.45 GB 0 0 1290634294

00:31

25-Ноя-10

Еще никто не оставлял запись к записи скачать торрент Невыносимая жестокость Intolerable Cruelty . Будь первым!

!Обратная связь