Скачать через торрент Разум в огне Brain on Fire Фильм бесплатно в хорошем качестве torrent

Скачивайте на UnionPeer.org фильмы через торрент без регистрации. Новинки кино в хорошем качестве через торрент. На UnionPeer.org можно скачать через торрент фильмы 2014 и 2015 годов. Самые новые фильмы.

Скачать торрент Разум в огне Brain on Fire бесплатно через .torrent фильм мультфильм сериал

Если у вас наблюдаются проблемы со скриншотами, переходом по ссылками, скачиванием торрентов - проблемы в блокировщике рекламы AdBlock. #хорошегоДня!


Статистика раздачи
Размер:  1.37 GB   |    Зарегистрирован:  2 месяца 3 дня   |    .torrent скачан:  110 раз   |   
Раздают:  1  
   
Загрузка...
 
Автор Сообщение

Galfimbul

avatar Galfimbul


Разум в огне / Brain on Fire
Страна: Ирландия, Канада
Жанр: драма, биография
Год выпуска: 2016
Продолжительность: 01:28:57

Перевод: Субтитры Rikka1709, Britu, Ketvelin
Субтитры: русские
Оригинальная аудиодорожка: английский

Режиссер: Джерард Барретт / Gerard Barrett

В ролях: Хлоя Грейс Морец, Ричард Армитедж, Кэрри-Энн Мосс, Дженни Слейт, Тайлер Перри, Томас Манн, Агам Дарши, Николь ЛаПлаца, Винсент Гэйл, Навид Негабан

Описание: Фильм основан на реальных событиях.
Успешная девушка однажды просыпается в психиатрической больнице. Она абсолютно не помнит, что с ней произошло, и как она сюда попала, ведь до пробуждения она вела довольно обычный образ жизни. У неё была хорошая перспективная работа, жених, и ничто не предвещало беды. Теперь ей ставят различные диагнозы, но ни один не подтверждается.

Доп. информация: Русские субтитры найдены в сети.

Сэмпл: http://multi-up.com/1164609

Качество видео: WEB-DLRip (исходник Brain.on.Fire.2016.1080p.WEB-DL.DD5.1.H264-FGT)
Формат видео: AVI

Видео: 720x304 (2.37:1), 23.976 fps, XviD build 67 ~1806 kbps avg, 0.34 bit/pixel
Аудио: 48 kHz, AC3 Dolby Digital, 3/2 (L,C,R,l,r) + LFE ch, ~384 kbps
Формат субтитров: softsub (SRT)
Релиз:
Формат : AVI
Формат/Информация : Audio Video Interleave
Размер файла : 1,37 Гбайт
Продолжительность : 1 ч. 28 м.
Общий поток : 2200 Кбит/сек
Программа кодирования : VirtualDubMod 1.5.10.2 (build 2540/release)
Библиотека кодирования : VirtualDubMod build 2540/release

Видео
Идентификатор : 0
Формат : MPEG-4 Visual
Профиль формата : Advanced Simple@L5
Параметр BVOP формата : 2
Параметр QPel формата : Нет
Параметр GMC формата : Без точки перехода
Параметр матрицы формата : Default (MPEG)
Идентификатор кодека : XVID
Идентификатор кодека/Подсказка : XviD
Продолжительность : 1 ч. 28 м.
Битрейт : 1806 Кбит/сек
Ширина : 720 пикселей
Высота : 304 пикселя
Соотношение сторон : 2,35:1
Частота кадров : 23,976 (23976/1000) кадра/сек
Цветовое пространство : YUV
Субдискретизация насыщенности : 4:2:0
Битовая глубина : 8 бит
Тип развёртки : Прогрессивная
Метод сжатия : С потерями
Бит/(Пиксели*Кадры) : 0.344
Размер потока : 1,12 Гбайт (82%)
Библиотека кодирования : XviD 67

Аудио
Идентификатор : 1
Формат : AC-3
Формат/Информация : Audio Coding 3
Расширение режима : CM (complete main)
Параметр Endianness формата : Big
Идентификатор кодека : 2000
Продолжительность : 1 ч. 28 м.
Вид битрейта : Постоянный
Битрейт : 384 Кбит/сек
Каналы : 6 каналов
Расположение каналов : Front: L C R, Side: L R, LFE
Частота : 48,0 КГц
Частота кадров : 31,250 кадров/сек (1536 spf)
Метод сжатия : С потерями
Размер потока : 244 Мбайт (17%)
Выравнивание : Разделение по промежуткам
Продолжительность промежутка : 42 мс. (1,00 видеокадр)
Время предзагрузки промежутка : 500 мс.
[i]10
00:01:24,486 --> 00:01:26,488
Меня зовут Сюзанна Кахалан.

12
00:01:27,835 --> 00:01:31,435
и у меня есть работа моей мечты в "Нью-Йорк Пост".

13
00:01:31,619 --> 00:01:35,289
Живя в Нью-Йорке, мы все о чем-то мечтаем, верно?

14
00:01:35,372 --> 00:01:38,417
Не смейтесь надо мной, но работа в "Пост" была моей мечтой.

15
00:01:38,542 --> 00:01:40,388
Слушай, Ричард, можешь глянуть мой текст?

16
00:01:40,488 --> 00:01:42,588
Нет. Мне некогда с тобой няньчиться, Сюзанна.

17
00:01:42,671 --> 00:01:43,903
Приставай к Марго.

18
00:01:43,973 --> 00:01:45,073
Пошла-пошла-пошла.

19
00:01:46,342 --> 00:01:48,521
У меня впереди была вся жизнь.

20
00:01:48,621 --> 00:01:50,221
Я ничего не боялась.

21
00:01:50,304 --> 00:01:54,141
И я даже представить не могла, что меня ожидает.

22
00:01:54,225 --> 00:01:57,811
Это моя ручка у тебя во рту?

23
00:02:00,770 --> 00:02:01,983
Возможно.

24
00:02:02,581 --> 00:02:05,381
Оставь себе. В следующий раз кидай на почту, спаси дерево.

25
00:02:05,444 --> 00:02:08,572
Не пойму, что здесь не так. Просто чувствую, понимаешь?

26
00:02:08,656 --> 00:02:10,268
Нет, это хорошо, Сюзанна.

27
00:02:10,368 --> 00:02:12,768
Просто надо передвинуть последний абзац в начало.

28
00:02:12,952 --> 00:02:16,580
И ради Бога, придумай новый заголовок.

29
00:02:16,664 --> 00:02:20,918
"Ягодицы в опасности? Нелегальные российские импланты".

30
00:02:21,001 --> 00:02:24,248
Серьезно? Позволь заметить, ты способна на лучшее.

31
00:02:24,348 --> 00:02:25,548
Я просто выполняю свои обязательства, понимаешь?
Огромное спасибо Rikka1709, Britu, Ketvelin за перевод фильма!

Трекер:  [ 13-Авг-2017 15:30 ]

  

Скачать .torrent

Размер .torrent файла 14 KB


Размер: 1.37 GB
Хэш (hash) релиза: 66cf2dfbff0cb0d1009d3303059a963969dd0d2c
Подписка на обновления:

Еще никто не оставлял запись к записи скачать торрент Разум в огне Brain on Fire . Будь первым!

!Обратная связь