Скачать через торрент Операция ниндзя 6: Чемпион в огне Ninja Operation 6: Champion on Fire Фильм бесплатно в хорошем качестве torrent

Скачивайте на UnionPeer.org фильмы через торрент без регистрации. Новинки кино в хорошем качестве через торрент. На UnionPeer.org можно скачать через торрент фильмы 2014 и 2015 годов. Самые новые фильмы.

Скачать торрент Операция ниндзя 6: Чемпион в огне Ninja Operation 6: Champion on Fire бесплатно через .torrent фильм мультфильм сериал

Если у вас наблюдаются проблемы со скриншотами, переходом по ссылками, скачиванием торрентов - проблемы в блокировщике рекламы AdBlock. #хорошегоДня!


Статистика раздачи
Размер:  751 MB   |    Зарегистрирован:  6 дней   |    .torrent скачан:  23 раза   |   
Раздают:  1  
   
Загрузка...
 
Автор Сообщение

Galfimbul

avatar Galfimbul


Операция ниндзя 6: Чемпион в огне / Ninja Operation 6: Champion on Fire / Ninja Avengers; Shaolin Quick Draw

Страна: Гонконг
Жанр: боевые искусства
Год выпуска: 1987
Продолжительность: 01:26:35

Перевод: Одноголосый закадровый Chesterfield
Субтитры: нет
Режиссер: Джозеф Лай / Joseph Lai

В ролях: Ричард Харрисон, Патрик Келли, Стюарт Смит, Стефан Бернхардт Лунг Фэй, Чанг И, Люси Ким, Эрик Лунг

Описание: Ринго выходит из тюрьмы. Годы проведённые там, не смогли перевоспитать его характер, и единственное его желание, это месть. Месть Антонио, человеку, который дал против него показания, и который стал причиной его заключения. Антонио тем временем подвязался работать на японцев, и с неподдельным энтузиазмом помогает им грабить Китай. После очередного грабежа, в ходе которого удалось украсть «Великую Китайскую Реликвию», вместо награды Антонио получает пулю от предводителя японцев. Раздосадованный такой оплатой труда, Антонио пускается в бега, но живой свидетель злодеяний японцам не нужен, и за беглецом отправляется погоня. Раненный беглец по идее обречён, но ему улыбается удача в лице Тигра, странствующего бойца - патриота вместе с которым Антонио даст бой японцам. Меж тем, на след Антонио смогли выйти люди Ринго, но и здесь беглецу сопутствует удача, у него есть старший брат - Великий Мастер Ниндзя по имени Гордон, который не даст в обиду брата...

Сэмпл: http://multi-up.com/1164509

Качество видео: VHSRip (Исходник DVD-Video)
Формат видео: AVI

Видео: XviD, 608x336, (16:9), 25,000 fps, 1075 Кбит/с, 8 бит
Аудио: Русский (MP3, 2 ch, 48,0 KHz, 128 Kbps)
Общее
Полное имя : F:\Видеофильмы\В и д е о\Операция ниндзя 6 Чемпион в огне (боевые искусства 1987 год).avi
Формат : AVI
Формат/Информация : Audio Video Interleave
Размер файла : 751 Мбайт
Продолжительность : 1 ч. 26 м.
Общий поток : 1213 Кбит/сек
Программа кодирования : VirtualDubMod 1.5.10.3 | www.virtualdub-fr.org || (build 2550/release)
Библиотека кодирования : VirtualDubMod build 2550/release

Видео
Идентификатор : 0
Формат : MPEG-4 Visual
Профиль формата : Advanced Simple@L5
Параметр BVOP формата : 2
Параметр QPel формата : Нет
Параметр GMC формата : Без точки перехода
Параметр матрицы формата : Выборочная
Идентификатор кодека : XVID
Идентификатор кодека/Подсказка : XviD
Продолжительность : 1 ч. 26 м.
Битрейт : 1075 Кбит/сек
Ширина : 608 пикселей
Высота : 336 пикселей
Соотношение сторон : 16:9
Частота кадров : 25,000 кадров/сек
Цветовое пространство : YUV
Субдискретизация насыщенности : 4:2:0
Битовая глубина : 8 бит
Тип развёртки : Прогрессивная
Метод сжатия : С потерями
Бит/(Пиксели*Кадры) : 0.211
Размер потока : 666 Мбайт (89%)
Библиотека кодирования : XviD 73

Аудио
Идентификатор : 1
Формат : MPEG Audio
Версия формата : Version 1
Профиль формата : Layer 3
Идентификатор кодека : 55
Идентификатор кодека/Подсказка : MP3
Продолжительность : 1 ч. 26 м.
Вид битрейта : Постоянный
Битрейт : 128 Кбит/сек
Каналы : 2 канала
Частота : 48,0 КГц
Метод сжатия : С потерями
Размер потока : 79,3 Мбайт (11%)
Выравнивание : Соединение по промежуткам
Продолжительность промежутка : 40 мс. (1,00 видеокадр)
Время предзагрузки промежутка : 504 мс.
Библиотека кодирования : LAME3.99r
Настройки программы : -m s -V 4 -q 2 -lowpass 17 -b 128


Трекер:  [ 13-Авг-2017 14:01 ]

  

Скачать .torrent

Размер .torrent файла 15 KB


Размер: 751 MB
Хэш (hash) релиза: 487dff21a1f1d4336939ecd9673dd19fe545b248
Подписка на обновления:

Еще никто не оставлял запись к записи скачать торрент Операция ниндзя 6: Чемпион в огне Ninja Operation 6: Champion on Fire . Будь первым!

!Обратная связь