Скачать через торрент Серебряные Озера Фильм бесплатно в хорошем качестве torrent

Скачивайте на UnionPeer.org фильмы через торрент без регистрации. Новинки кино в хорошем качестве через торрент. На UnionPeer.org можно скачать через торрент фильмы 2014 и 2015 годов. Самые новые фильмы.

Скачать торрент Серебряные Озера бесплатно через .torrent фильм мультфильм сериал

Если у вас наблюдаются проблемы со скриншотами, переходом по ссылками, скачиванием торрентов - проблемы в блокировщике рекламы AdBlock. #хорошегоДня!


Статистика раздачи
Размер:  1.37 GB   |    Зарегистрирован:  2 месяца 3 дня   |    .torrent скачан:  29 раз   |   
Раздают:  1  
   
Загрузка...
 
Автор Сообщение

Galfimbul

avatar Galfimbul


Серебряные Озера

Жанр: драма
Год выпуска: 1980
Продолжительность: 01:26:30

Режиссёр: Борис Бунеев

В ролях: Андрей Ростоцкий
Ольга Кузяшина
Римма Коростелева
Андрей Троицкий
Геннадий Скоморохов
Игорь Головин
Олег Фомин
Евгений Бакалов
Михаил Глузский
Всеволод Сафонов

Описание: Симпатяга-парень Сергей Ковалев решил, что инженер — не его профессия, и уехал к родственникам в провинциальный городок Серебряные Озера. Там познакомился с семьей молодого художника, неожиданно озлобился — и решил отомстить новому другу. Своеобразная дуэль на мотоциклах для Игоря закончилась трагически.

Доп. информация: ЭТОТ РАРИТЕТНЫЙ ЛЮБЕЗНО ПРЕДОСТАВИЛ ДЛЯ РЕЛИЗА ИЗ ЛИЧНОЙ КОЛЛЕКЦИИ Tuts77

Релиз

Сэмпл: https://yadi.sk/i/aOz-X8T43LwZVx

Качество видео: DVDRip
Формат видео: AVI

Видео: 704x368 (1.91:1), 25 fps, XviD build 73 ~2060 kbps avg, 0.32 bit/pixel
Аудио: 48 kHz, AC3 Dolby Digital, 2/0 (L,R) ch, ~192 kbps
Серебряные озера [by Tuts77].avi
Format : AVI
Format/Info : Audio Video Interleave
File size : 1.37 GiB
Duration : 1 h 26 min
Overall bit rate : 2 263 kb/s
Movie name : Серебряные озера [by Tuts77]
Director : by Tuts77
Writing application : VirtualDubMod 1.5.10.3 | www.virtualdub-fr.org || (build 2550/release)
Copyright : Edich2
Comment : RuTracker.org

Video
ID : 0
Format : MPEG-4 Visual
Format profile : Advanced Simple@L5
Format settings, BVOP : 2
Format settings, QPel : No
Format settings, GMC : No warppoints
Format settings, Matrix : Custom
Codec ID : XVID
Codec ID/Hint : XviD
Duration : 1 h 26 min
Bit rate : 2 061 kb/s
Width : 704 pixels
Height : 368 pixels
Display aspect ratio : 1.913
Frame rate : 25.000 FPS
Color space : YUV
Chroma subsampling : 4:2:0
Bit depth : 8 bits
Scan type : Progressive
Compression mode : Lossy
Bits/(Pixel*Frame) : 0.318
Stream size : 1.25 GiB (91%)
Writing library : XviD 73

Audio
ID : 1
Format : AC-3
Format/Info : Audio Coding 3
Format settings, Endianness : Big
Codec ID : 2000
Duration : 1 h 26 min
Bit rate mode : Constant
Bit rate : 192 kb/s
Channel(s) : 2 channels
Channel positions : Front: L R
Sampling rate : 48.0 kHz
Frame rate : 31.250 FPS (1536 spf)
Bit depth : 16 bits
Compression mode : Lossy
Stream size : 119 MiB (8%)
Alignment : Split accross interleaves
Interleave, duration : 40 ms (1.00 video frame)
Interleave, preload duratio : 500 ms
Service kind : Complete Main


Трекер:  [ 13-Авг-2017 11:24 ]

  

Скачать .torrent

Размер .torrent файла 14 KB


Размер: 1.37 GB
Хэш (hash) релиза: 90715b6c135a5bf6cf9661306325f9bffd416b57
Подписка на обновления:

Торренты, похожие на Серебряные Озера скачать торрент

Форум Название Автор Размер S L Добавлен
Зарубежные фильмы до 2016 ·· Сокровище Серебряного озера / Der Schatz im Silbersee (Харальд Райнль / Harald Reinl) [1962, Германия (ФРГ), Франция, Югославия, вестерн, приключения, BDRip] MVO (5 Канал СПБ) + Original Ger Galfimbul 21760819202.03 GB 0 0 1387269143

11:32

17-Дек-13

Мультфильмы до 2016 ·· Приключения Виннету. Легенда сокровища Серебрянного озера / WinneToons – Die Legende vom Schatz im Silbersee (Герт Людвиг / Gert Ludewig) [2009, семейный, приключения, вестерн, DVDRip-AVC] AVO (Живов) + DEU Galfimbul 13468269701.25 GB 0 0 1381178235

23:37

7-Окт-13

Зарубежные фильмы до 2016 ·· Сокровища Серебряного озера / Der Schatz im Silbersee / Treasure of Silver Lake (Харальд Райнль / Harald Reinl) [1962, Германия, вестерн, BDRip-AVC] Dub + DVO + Original (ger) Galfimbul 23448026962.18 GB 0 0 1379106947

00:15

14-Сен-13

Зарубежные фильмы до 2016 ·· Сокровище Серебряного озера / Der Schatz im Silbersee (Харальд Райнль / Harald Reinl) [1962, приключения, вестерн, BDRemux 1080p] [Remastered] L 2001248483618.64 GB 0 0 1324365687

10:21

20-Дек-11

Еще никто не оставлял запись к записи скачать торрент Серебряные Озера . Будь первым!

!Обратная связь