Скачать через торрент История семьи Аркана La storia della Arcana Famiglia бесплатно Аниме Все серии на русском torrent

Если у вас наблюдаются проблемы со скриншотами, переходом по ссылками, скачиванием торрентов - проблемы в блокировщике рекламы AdBlock. #хорошегоДня!


Статистика раздачи
Размер:  76.47 GB   |    Зарегистрирован:  10 дней   |    .torrent скачан:  20 раз   |   
Раздают:  1  
   
Загрузка...
 
Автор Сообщение

Galfimbul

avatar Galfimbul


История семьи Аркана / La storia della Arcana Famiglia

Год выпуска: 2012
Страна: Япония
Жанр: сёдзё
Тип: TV
Продолжительность: 12 эп. по 24 мин.
Озвучка:

Одноголосая (муж) от Bagel (Friend COOP)
Одноголосая (муж) от Drey (Anifilm)
Двухголосая (муж/жен) от MifSnaiper & NASTR (ARRU)
Двухголосая (муж/жен) от ART Studio
Многоголосая от Viki & BalFor & Faraway & SakaE (SHIZA)
Многоголосая от Absurd & Eladiel & Zendos & Enilou (Anilibria)

Русские субтитры: есть (отдельным файлом, формат .ass)
Перевод:

Asca, Stan WarHammer, Zottig

Хардсаб: НетРежиссер: Кон Тиаки
Студия: J.C. Staff

Описание: В теплом море некоего параллельного мира раскинулся большой торговый остров Регало. Разумеется, столь благодатную землю не раз завоевывали, грабили и опустошали, но ко времени, аналогичному концу нашего XIX века, маленькая, но гордая страна обрела, наконец, независимость. Правит островом и следит за законом и порядком не король, не князь, а, конечно же, мафиозная семья! Семья Аркана – типичный пример «нашего дела», объединение по крови и духу, каждый из членов которого обрел мистические силы от контракта с одним из козырей Таро. Ну а главу семьи и фактического хозяина острова все зовут просто «папа»!

Мондо, нынешний «папа», еще не стар, но разумно озаботился выбором преемника, для чего объявил «турнир Арканы», открытый для всех членов семьи. Победитель получит не только власть, но и руку единственной дочери главы клана. Впрочем, своенравная Феличита замуж не рвется и потому собирается лично участвовать в турнире, чтобы завоевать свою свободу. В этом ей обещали помочь кузен Нова и друг детства Либерта, а вот остальные члены семьи, куда более серьезные бойцы, не прочь присоединить к главному призу еще и «бамбину». Теперь героям остается лишь выяснить, что сильнее – мечты, судьба или карты Таро!
© Hollow, World Art

Качество: Blu-Ray Remux
Формат: MKV
Видео кодек: AVC
Аудио кодек: FLAC
Видео: 1920x1080 (16:9) 23,976 fps ~36 Mbps 8bit
Аудио:
Jap FLAC, 48000Hz, ~687 Kbps, 2ch
RUS 1-6 (ext) AC3, 48000Hz, ~192 Kbps, 2ch

Субтитры и озвучка взяты из этой раздачи.
Чаптеры присутствуют.
01. Ночь в день именин
02. Командир отряда по защите животных
03. Пикколино
04. Признание человека в маске
05. Друзья детства
06. Все на борт!
07. Общий секрет
08. Луна во тьме
09. Колесо Фортуны
10. Семья Арканы
11. Таинственный треугольник
12. Дуэль Арканов
Общее
Уникальный идентификатор : 210791765430483390437342569341572883853 (0x9E95046E40015FD08ADF6FC9E3D8258D)
Полное имя : Z:\Anime Release - working\La storia della Arcana Famiglia\[anti-raws]La storia della Arcana Famiglia ep.01[BDRemux].mkv
Формат : Matroska
Версия формата : Version 4 / Version 2
Размер файла : 6,22 Гбайт
Продолжительность : 23 м. 42 с.
Режим общего битрейта : Переменный
Общий поток : 37,6 Мбит/сек
Дата кодирования : UTC 2017-08-12 23:15:42
Программа кодирования : mkvmerge v14.0.0 ('Flow') 64bit
Библиотека кодирования : libebml v1.3.4 + libmatroska v1.4.5

Видео
Идентификатор : 2
Формат : AVC
Формат/Информация : Advanced Video Codec
Профиль формата : High@L4.1
Параметр CABAC формата : Да
Параметр ReFrames формата : 2 кадра
Идентификатор кодека : V_MPEG4/ISO/AVC
Продолжительность : 23 м. 42 с.
Вид битрейта : Переменный
Битрейт : 36,9 Мбит/сек
Ширина : 1920 пикселей
Высота : 1080 пикселей
Соотношение сторон : 16:9
Режим частоты кадров : Постоянный
Частота кадров : 23,976 (24000/1001) кадра/сек
Цветовое пространство : YUV
Субдискретизация насыщенности : 4:2:0
Битовая глубина : 8 бит
Тип развёртки : Прогрессивная
Бит/(Пиксели*Кадры) : 0.742
Размер потока : 6,10 Гбайт (98%)
Default : Нет
Forced : Нет

Аудио
Идентификатор : 1
Формат : FLAC
Формат/Информация : Free Lossless Audio Codec
Идентификатор кодека : A_FLAC
Продолжительность : 23 м. 42 с.
Вид битрейта : Переменный
Битрейт : 686 Кбит/сек
Каналы : 2 канала
Расположение каналов : Front: L R
Частота : 48,0 КГц
Частота кадров : 11,719 кадров/сек (4096 spf)
Битовая глубина : 16 бит
Размер потока : 116 Мбайт (2%)
Библиотека кодирования : libFLAC 1.2.1 (UTC 2007-09-17)
Язык : Japanese
Default : Да
Forced : Нет

Меню
00:00:00.000 : en:00:00:00.000
00:04:28.018 : en:00:04:28.018
00:05:58.024 : en:00:05:58.024
00:12:45.098 : en:00:12:45.098
00:22:00.069 : en:00:22:00.069
00:23:30.075 : en:00:23:30.075
...4113615
...4114394
...4115026
--HDTVRip

...5236016
...4634295
--BDRip

Эта раздача - BDRemux


Трекер:  [ 13-Авг-2017 05:30 ]

  

Скачать .torrent

Размер .torrent файла 109 KB


Размер: 76.47 GB
Хэш (hash) релиза: 1588924414f268fe74d063c8f6b76c21d5705483
Подписка на обновления:

Еще никто не оставлял запись к записи скачать торрент История семьи Аркана La storia della Arcana Famiglia . Будь первым!

!Обратная связь