Скачать через торрент Семь смертных грехов: Знамение священной войны Nanatsu no Taizai: Seisen no Shirushi бесплатно Аниме Все серии на русском torrent

Если у вас наблюдаются проблемы со скриншотами, переходом по ссылками, скачиванием торрентов - проблемы в блокировщике рекламы AdBlock. #хорошегоДня!


Статистика раздачи
Размер:  28.34 GB   |    Зарегистрирован:  10 дней   |    .torrent скачан:  21 раз   |   
Раздают:  1  
   
Загрузка...
 
Автор Сообщение

Galfimbul

avatar Galfimbul


Семь смертных грехов: Знамение священной войны / Nanatsu no Taizai: Seisen no Shirushi

Год выпуска: 2016
Страна: Япония
Жанр: приключения, фэнтези, сёнен
Тип: Special
Продолжительность: 4 эп. по 25 мин.
Озвучка:

Двухголосая (муж/жен) от Soer & MezIdA (DeadLine Studio)

Русские субтитры: есть (отдельным файлом, формат .ass)
Перевод:

Anku, mutagenb

Хардсаб: НетРежиссер: Томоказу Токоро
Студия: A-1 Pictures Inc.

Описание: Могущественный орден Святых Рыцарей, которых почитают как великих героев, совершает государственный переворот с целью установить в королевстве свою диктатуру. Дочь плененного короля отправляется в путешествие, чтобы отыскать последнюю надежду на спасение - членов легендарного рыцарского ордена "Семь Смертных Грехов", которых считают величайшими преступниками этой эпохи...

Качество: Blu-Ray Remux
Формат: MKV
Видео кодек: AVC
Аудио кодек: FLAC
Видео: 1920x1080 (16:9) 23,976 fps ~37,1 Mbps 8bit
Аудио:
Jap FLAC, 48000Hz, ~1482 Kbps, 2ch
RUS (ext) AAC, 48000Hz, ~192 Kbps, 2ch

Чаптеры присутствуют.
01. Начало мрачного сна
02. Бойцовский фестиваль с двумя участниками
03. В погоне за первой любовью
04. Облик любви
Общее
Уникальный идентификатор : 201799792006626376276029117928633609367 (0x97D139E9883AC8A39912D9E6A59D2C97)
Полное имя : Z:\Anime Release - working\Nanatsu no Taizai Special\[anti-raws]Nanatsu no Taizai - Seisen no Shirushi ep.01[BDRemux].mkv
Формат : Matroska
Версия формата : Version 4 / Version 2
Размер файла : 6,68 Гбайт
Продолжительность : 24 м. 14 с.
Режим общего битрейта : Переменный
Общий поток : 39,4 Мбит/сек
Дата кодирования : UTC 2017-08-13 00:21:46
Программа кодирования : mkvmerge v14.0.0 ('Flow') 64bit
Библиотека кодирования : libebml v1.3.4 + libmatroska v1.4.5

Видео
Идентификатор : 2
Формат : AVC
Формат/Информация : Advanced Video Codec
Профиль формата : High@L4.1
Параметр CABAC формата : Да
Параметр ReFrames формата : 4 кадра
Идентификатор кодека : V_MPEG4/ISO/AVC
Продолжительность : 24 м. 14 с.
Вид битрейта : Переменный
Битрейт : 38,0 Мбит/сек
Максимальный битрейт : 40,0 Мбит/сек
Ширина : 1920 пикселей
Высота : 1080 пикселей
Соотношение сторон : 16:9
Режим частоты кадров : Постоянный
Частота кадров : 23,976 (24000/1001) кадра/сек
Цветовое пространство : YUV
Субдискретизация насыщенности : 4:2:0
Битовая глубина : 8 бит
Тип развёртки : Прогрессивная
Бит/(Пиксели*Кадры) : 0.764
Размер потока : 6,43 Гбайт (96%)
Default : Нет
Forced : Нет

Аудио
Идентификатор : 1
Формат : FLAC
Формат/Информация : Free Lossless Audio Codec
Идентификатор кодека : A_FLAC
Продолжительность : 24 м. 14 с.
Вид битрейта : Переменный
Битрейт : 1481 Кбит/сек
Каналы : 2 канала
Расположение каналов : Front: L R
Частота : 48,0 КГц
Частота кадров : 11,719 кадров/сек (4096 spf)
Битовая глубина : 24 бит
Размер потока : 257 Мбайт (4%)
Библиотека кодирования : libFLAC 1.2.1 (UTC 2007-09-17)
Язык : Japanese
Default : Да
Forced : Нет

Меню
00:00:00.000 : en:00:00:00.000
00:01:43.020 : en:00:01:43.020
00:03:12.984 : en:00:03:12.984
00:10:28.044 : en:00:10:28.044
00:21:52.061 : en:00:21:52.061
00:23:22.026 : en:00:23:22.026
00:23:57.061 : en:00:23:57.061
...5305723
--HDTVRip

Эта раздача - BDRemux


Трекер:  [ 13-Авг-2017 05:30 ]

  

Скачать .torrent

Размер .torrent файла 38 KB


Размер: 28.34 GB
Хэш (hash) релиза: d1fe3406797d686f1811e91d1a6c2b20d386abba
Подписка на обновления:

Торренты, похожие на Семь смертных грехов: Знамение священной войны Nanatsu no Taizai: Seisen no Shirushi скачать торрент

Форум Название Автор Размер S L Добавлен
Аниме | HD Rips ·· Семь смертных грехов: Знамение священной войны / Nanatsu no Taizai: Seisen no Shirushi (Токоро Томокадзу) [Special] [4 из 4] [без хардсаба] [RUS(ext), JAP+SUB] [2016, комедия, фэнтези, BDRip] [720p] Galfimbul 24535658542.29 GB 0 0 1502629382

16:03

13-Авг-17

Аниме | HD Rips ·· Семь смертных грехов: Знамение священной войны / Nanatsu no Taizai: Seisen no Shirushi [Special] [4 из 4] [Без хардсаба] [RUS(int), JAP+SUB] [2016, экшен, приключения, фэнтези, сёнен, HDTVRip] [720p] Galfimbul 18055496151.68 GB 0 0 1478625077

20:11

8-Ноя-16

Аниме | HD Rips ·· Семь смертных грехов: Знамение священной войны / Nanatsu no Taizai: Seisen no Shirushi [Special] [2 из 4] [Без хардсаба] [RUS(int), JAP+SUB] [2016, экшен, приключения, фэнтези, сёнен, HDTVRip] [720p] Galfimbul 946130577902 MB 0 0 1478104880

19:41

2-Ноя-16

Аниме | HD Rips ·· Семь смертных грехов: Знамение священной войны / Nanatsu no Taizai: Seisen no Shirushi [Special] [4 из 4] [Без хардсаба] [JAP, SUB] [2016 г., экшен, приключения, фэнтези, сёнен, HDTVRip] [720p] Galfimbul 16736785481.56 GB 0 0 1474283285

14:08

19-Сен-16

Аниме | HD Rips ·· Семь смертных грехов: Знамение священной войны / Nanatsu no Taizai: Seisen no Shirushi [Special] [1-3 из 4] [Без хардсаба] [JAP, SUB] [2016 г., экшен, приключения, фэнтези, сёнен, HDTVRip] [720p] Galfimbul 12915717621.2 GB 0 0 1473713785

23:56

12-Сен-16

Аниме | HD Rips ·· Семь смертных грехов: Знамение священной войны / Nanatsu no Taizai: Seisen no Shirushi [Special] [1-2 из 4] [Без хардсаба] [JAP, SUB] [2016 г., экшен, приключения, фэнтези, сёнен, HDTVRip] [720p] Galfimbul 879984312839 MB 0 0 1473166602

15:56

6-Сен-16

Аниме | HD Rips ·· Семь смертных грехов: Знамение священной войны / Nanatsu no Taizai: Seisen no Shirushi [Special] [1 из 4] [Без хардсаба] [JAP, SUB] [2016 г., экшен, приключения, фэнтези, сёнен, HDTVRip] [720p] Galfimbul 422598993403 MB 0 0 1472428644

02:57

29-Авг-16

Еще никто не оставлял запись к записи скачать торрент Семь смертных грехов: Знамение священной войны Nanatsu no Taizai: Seisen no Shirushi . Будь первым!

!Обратная связь