Скачать через торрент Фаринелли - кастрат Farinelli Фильм бесплатно в хорошем качестве torrent

Скачивайте на UnionPeer.org фильмы через торрент без регистрации. Новинки кино в хорошем качестве через торрент. На UnionPeer.org можно скачать через торрент фильмы 2014 и 2015 годов. Самые новые фильмы.

Скачать торрент Фаринелли - кастрат Farinelli бесплатно через .torrent фильм мультфильм сериал

Если у вас наблюдаются проблемы со скриншотами, переходом по ссылками, скачиванием торрентов - проблемы в блокировщике рекламы AdBlock. #хорошегоДня!


Статистика раздачи
Размер:  7.81 GB   |    Зарегистрирован:  2 месяца 7 дней   |    .torrent скачан:  24 раза   |   
Раздают:  2  
   
Загрузка...
 
Автор Сообщение

Galfimbul

avatar Galfimbul


Фаринелли - кастрат / Farinelli il Castrato

one God, one Farinelli

Год выпуска: 1994
Страна: Франция, Италия, Бельгия
Жанр: музыкальная драма
Продолжительность: 01:46:06
Перевод: Профессиональный (многоголосый, закадровый)
Русские субтитры: есть 2 варианта, французские субтитры

Режиссер: Жерар Корбьо / Gerard Corbiau

В ролях: Стефано Дионизи, Энрико Ло Версо, Эльза Зильберштейн, Каролина Селлье, Марианна Басле, Жак Будэ, Грэхам ВалентинОписание: Посвятить себя божественному дару и добиться невиданного успеха, всенародной любви и поклонения или узнать простое человеческое счастье - стать отцом? Можно было выбрать только одно из двух, но ему отказали в праве выбора. Голос, о котором по сей день ходят легенды, жизнь, полная бешеной славы, признания и роскоши, и постоянное ощущение собственной непоправимой неполноценности.
Персонаж, имеющий лишь отдалённое отношение к реальному Фаринелли - скорее романтический собирательный образ, отражающий всю красоту и драматизм этого искусства прошлых веков - оперного пения кастратов. Восторг публики, готовые на всё поклонницы, постоянные гастроли, яркие вычурные костюмы и декорации барочных опер, обилие грима, опиума, перьев и пленительная андрогинность - всё это вызывает живые ассоциации с золотой эрой рока и глэм-рока в частности. У вас не должно остаться сомнения в том, как звали первую рок-звезду в истории.
Но это, понятно, лишь фон для личной трагедии главного героя. Покоряя своим искусством и простых смертных, и королей, и даже гениев (как, например, Генделя), он постоянно и безуспешно ищет смысл своего существования, оправдывающий то, чего его лишили... и так до самого конца фильма, когда ему наконец удаётся принять прошлое, обрести будущее и заслужить покой и счастье в настоящем. Вот такая история, полная сильных чувств, чарующей музыки и неземной красоты. © night_spell
Небольшая справка (процитировано отсюда - http://etcetera.com.ua/node/1)

Карло Броски - Фаринелли (1705-1782) был самым знаменитым певцом-кастратом своей эпохи. Он прекрасно пел, был хорош собой, воспитан и образован, располагал к себе людей. Когда он репетировал, в Лондоне, оркестранты не могли играть, зачарованные его пением. В 32 года, на пике славы, Фаринелли уехал в Мадрид. Там он 10 лет ежедневно пел перед безумным королем Филиппом V (по свидетельствам очевидцев, одни и те же четыре арии) и этим продлил ему жизнь. Его влияние на королевскую семью было сравнимо с влиянием кардинала Ришелье на Людовика XIII. Следующий король, Фердинанд VI, фактически сделал певца своим премьер-министром. И, как писал один из современников, "доброта и умеренность характера не пострадали от высокого поста". В 1760 году Фаринелли вернулся в Италию. В Болонье его встречали как национального героя.

В фильме голос Фаринелли (а он брал 3.5 октавы) воссоздали смешением двух голосов: контртенора Дерека Ли Реджина (Derek Lee Ragin) и сопрано Эвы Маллас-Годлевска (Ewa Mallas Godlewska). Однородность звучания была достигнута при помощи цифровых методов. Этот процесс длился 17 месяцев.

Большой подробный пост о фильме и об истории вопроса читайте здесь - http://taksa-shmaksa.livejournal.com/17258.html?view=195178
<div class="q-wrap">
<div class="q-head"><b>night_spell</b> писал(а):</div>
<div class="q">Альтернативные раздачи:
DVD5 - ...788335
рип 1,45 GB - ...1957849
рип 703 MB - ...1538100

Что касается качества видео: ранее выложенная на трекере пятёрка в точности соответствует качеству фильма с того исходника. Само видео (без аудиодорожек) там весит 3,66 МБ (остальное - вес бонусов и аудио). Вес видеопотока вышеупомянутой пятёрки - тоже 3,66. Визуально качество также совпадает.</div>
</div>
DVD9 на основе R2 издания


DVD5


DVD9
Безусловный плюс диска, собранного на основе R2 - это оригинальная итало-французская DTS-дорожка (1,16 gb весом).
Также здесь есть очень интересные допы: документалки о создании фильма (можно посмотреть на YouTube - http://www.youtube.com/watch?v=vSqAEJxdZRM&feat...BB08&index=0), но они на французском без каких бы то ни было субтиров. Качество: DVD9
Формат: DVD Video
Видео кодек: MPEG2
Аудио кодек: AC3, DTS
Видео: PAL 16:9 (720x576) 6 899 Kbps
Аудио: Russian (Dolby AC3, 2 ch, 384Kbps), Francais (Dolby AC3, 6 ch, 448Kbps), Francais (DTS, 6 ch, 768Kbps)
General
Complete name : I:\Farinelli il Castrato.R2.DVD9.RUS\VIDEO_TS\VTS_01_2.VOB
Format : MPEG-PS
File size : 1 024 MiB
Duration : 20mn 45s
Overall bit rate : 6 899 Kbps

Video
ID : 224 (0xE0)
Format : MPEG Video
Format version : Version 2
Format profile : Main@Main
Format settings, Matrix : Default
Duration : 20mn 44s
Bit rate mode : Variable
Bit rate : 4 280 Kbps
Nominal bit rate : 7 300 Kbps
Width : 720 pixels
Height : 576 pixels
Display aspect ratio : 2.35
Frame rate : 25.000 fps
Standard : PAL
Colorimetry : 4:2:0
Scan type : Interlaced
Scan order : Top Field First
Bits/(Pixel*Frame) : 0.413
Stream size : 635 MiB (62%)

Audio #1
ID : 128 (0x80)
Format : AC-3
Format/Info : Audio Coding 3
Duration : 20mn 45s
Bit rate mode : Constant
Bit rate : 384 Kbps
Channel(s) : 2 channels
Channel positions : L R
Sampling rate : 48.0 KHz
Video delay : -731ms
Stream size : 57.0 MiB (6%)

Audio #2
ID : 129 (0x81)
Format : AC-3
Format/Info : Audio Coding 3
Duration : 20mn 45s
Bit rate mode : Constant
Bit rate : 448 Kbps
Channel(s) : 6 channels
Channel positions : Front: L C R, Surround: L R, LFE
Sampling rate : 48.0 KHz
Video delay : -731ms
Stream size : 66.5 MiB (6%)

Audio #3
ID : 138 (0x8A)
Format : DTS
Format/Info : Digital Theater Systems
Duration : 20mn 45s
Bit rate mode : Constant
Bit rate : 1 510 Kbps
Channel(s) : 6 channels
Channel positions : Front: L C R, Surround: L R, LFE
Sampling rate : 48.0 KHz
Resolution : 16 bits
Video delay : -731ms
Stream size : 224 MiB (22%)

Text #1
ID : 32 (0x20)
Format : RLE
Format/Info : Run-length encoding

Text #2
ID : 33 (0x21)
Format : RLE
Format/Info : Run-length encoding

Text #3
ID : 34 (0x22)
Format : RLE
Format/Info : Run-length encoding

Menu
Format : DVD-Video
<div class="q-wrap">
<div class="q-head"><b>night_spell</b> писал(а):</div>
<div class="q">P.S. здесь не тот перевод, что можно услышать в DVD5 релизе: он тоже не идеален, но я не нашла здесь некоторых странностей и неточностей, что слышала там.</div>
</div>
Субтитры и русский профперевод взяты из раздачи двд9 night_spell

Оригинальное французское издание R2 зоны предоставлено коллекционером vadim_bv.

Данная раздача по просьбам поклонников этого фильма.

Также добавлены субтитры с поправками, сделанными в соответствии с тв-показом этого фильма.
По умолчанию включается русский профперевод. В меню Versions кнопкой DTS можно включить французский dts + русские субтитры (с поправками), кнопкой AC3 - русский перевод.
Выбор остальных титров и аудиодорожек через меню плейера.

Две серые точки перехода как и в оригинале - верхняя лучшая.

РАЗДАЮ до пары сидов!

Трекер:  [ 13-Авг-2017 04:36 ]

  

Скачать .torrent

Размер .torrent файла 21 KB


Размер: 7.81 GB
Хэш (hash) релиза: c31087d686025136d860303d0b1eae6cb00bac56
Подписка на обновления:

Еще никто не оставлял запись к записи скачать торрент Фаринелли - кастрат Farinelli . Будь первым!

!Обратная связь