Скачать через торрент Штурмовые ведьмы: Операция «Стрела победы» Strike Witches: Operation Victory Arrow бесплатно Аниме Все серии на русском torrent

Если у вас наблюдаются проблемы со скриншотами, переходом по ссылками, скачиванием торрентов - проблемы в блокировщике рекламы AdBlock. #хорошегоДня!


Статистика раздачи
Размер:  26.64 GB   |    Зарегистрирован:  4 дня   |    .torrent скачан:  22 раза   |   
Раздают:  1  
   
Загрузка...
 
Автор Сообщение

Galfimbul

avatar Galfimbul


Штурмовые ведьмы: Операция «Стрела победы» / Strike Witches: Operation Victory Arrow

Год выпуска:
Страна: Япония
Жанр: приключения, фантастика, этти
Тип: OVA
Продолжительность: 3 эп. по 29 мин.
Озвучка:

Двухголосая (муж/жен) от Soer & MezIdA (DeadLine Studio)

Русские субтитры: есть (отдельным файлом, формат .ass)
Перевод:

Buka63, Nachtwandler

Хардсаб: НетРежиссер: Такамура Казухиро
Студия: SILVER LINK

Описание: Где-то в параллельном мире в 1939 году на Землю явились Неврои – бездушные летающие машины, умеющие только сеять смерть и разрушение. Страны двух блоков, до того стоявшие на пороге мировой войны, срочно объединились для противодействия неведомому агрессору. И что же? Любое традиционное оружие середины XX века пришельцам нипочем - армады самолетов, военный флот, сухопутные армии просто сметаются в небытие. Справиться с Невроями может лишь сплав науки и магии – чудо-оружие, похожее на гибрид сдвоенной ведьминой ступы и боевого самолета. Пользоваться им могут, разумеется, исключительно юные девушки, наделенные волшебными силами, которые со всего мира стекаются в последний оплот Земли – скалистый остров в проливе Ла-Манш. Кстати, оружие требует тесного контакта с телом, поэтому уставной формой отряда «Штурмовых ведьм» являются китель и …трусики!

Действие развернётся между финалом второго сезона телесериала и событиями полнометражки 2012 года.

Качество: Blu-Ray Remux
Формат: MKV
Видео кодек: AVC
Аудио кодек: TrueHD, AC3
Видео: 1920x1080 (16:9) 23,976 fps ~36 Mbps 8bit
Аудио:
Jap 1 TrueHD, 96000Hz, ~2134 Kbps, 2ch
Jap 2 AC3, 48000Hz, ~640 Kbps, 2ch
RUS (ext) AAC, 48000Hz, ~192 Kbps, 2ch

Чаптеры присутствуют.
1. Гром над Сент-Трондом
2. Богини Эгейского моря
3. Арнемский мост
Общее
Уникальный идентификатор : 229117590008228091607527259631025088219 (0xAC5E71574B8F90E08505E97370A366DB)
Полное имя : M:\pub\Video\Anime\Strike Witches\OVA\[anti-raws]Strike Witches Operation Victory Arrow ep.1[BDRemux].mkv
Формат : Matroska
Версия формата : Version 4 / Version 2
Размер файла : 8,36 Гбайт
Продолжительность : 28 м. 35 с.
Режим общего битрейта : Переменный
Общий поток : 41,8 Мбит/сек
Дата кодирования : UTC 2017-08-12 12:25:23
Программа кодирования : mkvmerge v14.0.0 ('Flow') 64bit
Библиотека кодирования : libebml v1.3.4 + libmatroska v1.4.5

Видео
Идентификатор : 1
Формат : AVC
Формат/Информация : Advanced Video Codec
Профиль формата : High@L4.1
Параметр CABAC формата : Да
Параметр ReFrames формата : 4 кадра
Идентификатор кодека : V_MPEG4/ISO/AVC
Продолжительность : 28 м. 35 с.
Вид битрейта : Переменный
Битрейт : 39,0 Мбит/сек
Максимальный битрейт : 40,0 Мбит/сек
Ширина : 1920 пикселей
Высота : 1080 пикселей
Соотношение сторон : 16:9
Режим частоты кадров : Постоянный
Частота кадров : 23,976 (24000/1001) кадра/сек
Цветовое пространство : YUV
Субдискретизация насыщенности : 4:2:0
Битовая глубина : 8 бит
Тип развёртки : Прогрессивная
Бит/(Пиксели*Кадры) : 0.785
Размер потока : 7,80 Гбайт (93%)
Default : Нет
Forced : Нет
Цветовой диапазон : Limited
Основные цвета : BT.709
Характеристики трансфера : BT.709
Коэффициенты матрицы : BT.709

Аудио #1
Идентификатор : 2
Формат : TrueHD
Идентификатор кодека : A_TRUEHD
Продолжительность : 28 м. 35 с.
Вид битрейта : Переменный
Битрейт : 2110 Кбит/сек
Максимальный битрейт : 2892 Кбит/сек
Каналы : 2 канала
Расположение каналов : Front: C
Частота : 96,0 КГц
Частота кадров : 2400,000 кадров/сек (40 spf)
Метод сжатия : Без потерь
Размер потока : 432 Мбайт (5%)
Заголовок : TrueHD
Язык : Japanese
Default : Да
Forced : Нет

Аудио #2
Идентификатор : 3
Формат : AC-3
Формат/Информация : Audio Coding 3
Параметр Endianness формата : Big
Идентификатор кодека : A_AC3
Продолжительность : 28 м. 35 с.
Вид битрейта : Постоянный
Битрейт : 640 Кбит/сек
Каналы : 2 канала
Расположение каналов : Front: L R
Частота : 48,0 КГц
Частота кадров : 31,250 кадров/сек (1536 spf)
Битовая глубина : 16 бит
Метод сжатия : С потерями
Размер потока : 131 Мбайт (2%)
Заголовок : AC3
Язык : Japanese
ServiceKind/String : Complete Main
Default : Нет
Forced : Нет

Меню
00:00:00.000 : en:00:00:00.000
00:01:19.079 : en:00:01:19.079
00:02:49.169 : en:00:02:49.169
00:14:14.854 : en:00:14:14.854
00:25:58.557 : en:00:25:58.557
00:27:28.647 : en:00:27:28.647
00:28:19.698 : en:00:28:19.698
...5275648
...4903717
--BDRip

Эта раздача - BDRemux


Трекер:  [ 13-Авг-2017 02:01 ]

  

Скачать .torrent

Размер .torrent файла 35 KB


Размер: 26.64 GB
Хэш (hash) релиза: a27ecd3defd4b4e275f5f37df3a949145a311bbb
Подписка на обновления:

Торренты, похожие на Штурмовые ведьмы: Операция «Стрела победы» Strike Witches: Operation Victory Arrow скачать торрент

Форум Название Автор Размер S L Добавлен
Аниме | HD Rips ·· Штурмовые ведьмы: Операция «Стрела победы» / Strike Witches: Operation Victory Arrow [OVA] [3 из 3] [без хардсаба] [RUS(int), JAP+SUB] [2014, приключения, BDRip] [720p] Galfimbul 19272920721.79 GB 2 0 1481910045

20:40

16-Дек-16

Аниме | HD Rips ·· Штурмовые ведьмы: Операция «Стрела победы» / Strike Witches: Operation Victory Arrow [OVA] [01-02 из 03] [без хардсаба] [RUS(int), JAP+SUB] [2014, приключения, BDRip] [720p] Galfimbul 13592899391.27 GB 0 0 1478460418

22:26

6-Ноя-16

Аниме | HD Rips ·· Штурмовые ведьмы: Операция «Стрела победы» / Strike Witches: Operation Victory Arrow [OVA] [01 из 03] [без хардсаба] [RUS(int), JAP+SUB] [2014 г., приключения, BDRip] [720p] Galfimbul 669546204639 MB 0 0 1472586066

22:41

30-Авг-16

Аниме | HD Rips ·· Штурмовые ведьмы: Операция «Стрела победы» / Strike Witches: Operation Victory Arrow [OVA] [1 из 3] [Без хардсаба] [JAP, SUB] [2014 г., приключения, BDRip] [720p] Galfimbul 631495003602 MB 0 0 1420015658

11:47

31-Дек-14

Еще никто не оставлял запись к записи скачать торрент Штурмовые ведьмы: Операция «Стрела победы» Strike Witches: Operation Victory Arrow . Будь первым!

!Обратная связь