Скачать через торрент Адепт Святого Знака 2 Seikon no Qwaser 2 бесплатно Аниме Все серии на русском torrent

Если у вас наблюдаются проблемы со скриншотами, переходом по ссылками, скачиванием торрентов - проблемы в блокировщике рекламы AdBlock. #хорошегоДня!


Статистика раздачи
Размер:  49.68 GB   |    Зарегистрирован:  2 месяца 4 дня   |    .torrent скачан:  31 раз   |   
Раздают:  1  
   
Загрузка...
 
Автор Сообщение

Galfimbul

avatar Galfimbul


Адепт Святого Знака 2 / Seikon no Qwaser 2

Год выпуска: 2011
Страна: Япония
Жанр: приключения, мистика, этти
Тип: TV
Продолжительность: 12 эп. по 24 мин.
Озвучка:

Одноголосая (муж) от DimanRapper эп. 1-12, спешалы 1-2
Одноголосая (муж) от ITLM спешалы 1-4
Одноголосая (муж) от Jeferson эп. 1-12
Одноголосая (муж) от Kai эп. 1-12
Одноголосая (муж) от Wolfys эп. 1-12

Русские субтитры: есть (отдельным файлом, формат .ass)
Перевод:

chainsaws, Jenia aka Zub, Razmes, Треф

Хардсаб: НетРежиссер: Канэко Хираку
Студия: Hoods Entertainment

Описание: От души покуролесив в православной гимназии Св. Михайлова, главные герои первого сезона отправились на переподготовку в тайную церковную организацию «Афон». И вот сына снегов Сашу Хэлла ждет новое задание. Вместе с Ханой Кацураги, прочно вставшей на путь исправления, он на этот раз должен внедриться в католическую академию Суйрэй, найти девушку, обладающую даром «Магдалина Грома», и не допустить, чтобы на нее наложили руки злокозненные Адепты-еретики. А так как новая академия – исключительно женская, то бедного парня ждут нелегкие времена!

Ну ничего, наши и не такое видали, и вот уже Александр Николаевич при помощи безбашенной и незакомплексованной Ханы уверенно движется к титулу королевы школы, по пути хватая девушек за всякое, вовсю дегустируя сому и отпуская фирменные реплики на ломаном великом и могучем. Вот только и на «руссо туристо» нашлась управа. И снова магические битвы сотрясают реальный и виртуальный мир, элементы трансмутируют, сома льется рекой, а мы сможем наслаждаться жизнью и похождениями дружной «михайловской» компании!
© Hollow, World Art

Качество: Blu-Ray Remux
Формат: MKV
Видео кодек: AVC
Аудио кодек: FLAC
Видео: 1920x1080 (16:9) 23,976 fps ~21,2 Mbps 8bit
Аудио:
Jap FLAC, 48000Hz, ~1451 Kbps, 2ch
RUS 1 (ext) AC3, 48000Hz, ~320 Kbps, 2ch
RUS 2 (ext) AAC, 44100Hz, ~128 Kbps, 2ch
RUS 3 (ext) AAC, 48000Hz, ~192 Kbps, 2ch
RUS 4 (ext) AAC, 48000Hz, ~256 Kbps, 2ch
RUS 5 (ext) AAC, 48000Hz, ~192 Kbps, 2ch

Чаптеры присутствуют.
01. Серебряная принцесса-деволожница
02. Носительница Магдалины
03. Стеклянная ловушка
04. Шипастая клетка
05. Ведьмино подношение
06. Воссоединение
07. Гадание на груди по методу мадам Лили
08. Прекрасный соперник
09. Волнующий праздник основания
10. Квазер со стигматом
11. Ночь на железных источниках — 2 Приложись и удивись
12. Спокойствие закончено — Завертелись шестерёнки судьбы
Общее
Уникальный идентификатор : 226799732361964726760083753408333387050 (0xAAA00A22CC90B783B49120A0AF10952A)
Полное имя : Z:\Anime Release - working\Qwaser S2\[anti-raws]Seikon no Qwaser S2 ep.01[BDRemux].mkv
Формат : Matroska
Версия формата : Version 4 / Version 2
Размер файла : 3,82 Гбайт
Продолжительность : 23 м.
Режим общего битрейта : Переменный
Общий поток : 23,2 Мбит/сек
Дата кодирования : UTC 2017-01-07 21:24:45
Программа кодирования : mkvmerge v9.7.1 ('Pandemonium') 64bit
Библиотека кодирования : libebml v1.3.4 + libmatroska v1.4.5

Видео
Идентификатор : 2
Формат : AVC
Формат/Информация : Advanced Video Codec
Профиль формата : High@L4.1
Параметр CABAC формата : Да
Параметр ReFrames формата : 2 кадра
Идентификатор кодека : V_MPEG4/ISO/AVC
Продолжительность : 23 м.
Вид битрейта : Переменный
Битрейт : 21,7 Мбит/сек
Максимальный битрейт : 38,0 Мбит/сек
Ширина : 1920 пикселей
Высота : 1080 пикселей
Соотношение сторон : 16:9
Режим частоты кадров : Постоянный
Частота кадров : 23,976 (24000/1001) кадра/сек
Цветовое пространство : YUV
Субдискретизация насыщенности : 4:2:0
Битовая глубина : 8 бит
Тип развёртки : Прогрессивная
Бит/(Пиксели*Кадры) : 0.437
Размер потока : 3,58 Гбайт (94%)
Default : Нет
Forced : Нет
Цветовой диапазон : Limited
Основные цвета : BT.709
Характеристики трансфера : BT.709
Коэффициенты матрицы : BT.709

Аудио
Идентификатор : 1
Формат : FLAC
Формат/Информация : Free Lossless Audio Codec
Идентификатор кодека : A_FLAC
Продолжительность : 23 м.
Вид битрейта : Переменный
Битрейт : 1450 Кбит/сек
Каналы : 2 канала
Расположение каналов : Front: L R
Частота : 48,0 КГц
Частота кадров : 11,719 кадров/сек (4096 spf)
Битовая глубина : 24 бит
Размер потока : 245 Мбайт (6%)
Библиотека кодирования : libFLAC 1.2.1 (UTC 2007-09-17)
Язык : Japanese
Default : Да
Forced : Нет

Меню
00:00:00.000 : en:00:00:00.000
00:01:34.011 : en:00:01:34.011
00:03:03.975 : en:00:03:03.975
00:12:03.014 : en:00:12:03.014
00:21:30.039 : en:00:21:30.039
00:23:10.014 : en:00:23:10.014
...3546011
--HDTVRip

...3766780
...3832023
...3727941
...3651942
...3687661
--BDRip

Эта раздача - BDRemux


Трекер:  [ 12-Авг-2017 23:30 ]

  

Скачать .torrent

Размер .torrent файла 71 KB


Размер: 49.68 GB
Хэш (hash) релиза: 105ff07ee75e7f98e0003b14b6bfb33db953d3a9
Подписка на обновления:

Еще никто не оставлял запись к записи скачать торрент Адепт Святого Знака 2 Seikon no Qwaser 2 . Будь первым!

!Обратная связь