Скачать через торрент Измерение «W» Dimension W бесплатно Аниме Все серии на русском torrent

Если у вас наблюдаются проблемы со скриншотами, переходом по ссылками, скачиванием торрентов - проблемы в блокировщике рекламы AdBlock. #хорошегоДня!


Статистика раздачи
Размер:  54.14 GB   |    Зарегистрирован:  11 дней   |    .torrent скачан:  26 раз   |   
Раздают:  1  
   
Загрузка...
 
Автор Сообщение

Galfimbul

avatar Galfimbul


Измерение «W» / Dimension W

Год выпуска: 2016
Страна: Япония
Жанр: фантастика, сейнен
Тип: TV
Продолжительность: 12 эп. по 24 мин.
Озвучка:

Двухголосая (муж/жен) от Absurd & Eladiel (Onibaku) эп. 1-12

Многоголосая от Kansai Studio эп. 1-12
Многоголосая от SHIZA (участники: Snowly, Gomer, Aska, Лизавета) эп. 1-12

Русские субтитры: есть (отдельным файлом, формат .ass)
Перевод:

AleX_MytH, Zottig [Timecraft] (эп. 1-9)
Holydarkness, MantisFL [LeDi-MaHo Team] (эп. 1-12)
tengri [AniPanic] (спешал 1)

Хардсаб: НетРежиссер: Камэй Канта
Студия: Studio 3Hz & Orange

Описание: В будущем мечта Николы Теслы о беспроводной передаче электричества осуществилась. Провода и батареи остались в прошлом, а люди начали получать электричество из так называемых «катушек». Однако со временем некоторые люди стали модифицировать свои «катушки» и использовать их как оружие. Кёма Мабучи — «охотник», который в обмен на эти незаконные «катушки» получает деньги и топливо для своего раритетного автомобиля, работающего на бензине. Однажды, как и всегда, он берётся за работу: ему поручают отобрать партию нелегальных «катушек». Перебив всех бандитов, он нехотя спасает девушку, которая тут же отправляет его в нокаут с одной пощечины.

Качество: Blu-Ray Remux
Формат: MKV
Видео кодек: AVC
Аудио кодек: FLAC
Видео: 1920x1080 (16:9) 23,976 fps ~21,5 Mbps 8bit
Аудио:
Jap 1 TrueHD, 48000Hz, ~802 kbps 2ch
Jap 2 AC3, 48000Hz, ~448 kbps 2ch
RUS 1-3 (ext) AAC, 48000Hz, ~192 Kbps, 2ch

Чаптеры присутствуют.
01. Собиратель
02. Неудачник
03. В поисках Номеров
04. Тайна озера Ясогами
05. Сила мёртвых
06. Ветер Африки
07. Голос из прошлого
08. Остров, пропавший в небытии
09. Ключ к Адрастее
10. Воскрешённый кошмар
11. Утраченное Бытие
12. Будущее здесь
Общее
Уникальный идентификатор : 205837583855084241156536392306723827687 (0x9ADAE06BA7A3C845987BF4140816AFE7)
Полное имя : M:\pub\Video\Anime\Dimension W\[anti-raws]Dimension W ep.01[BDRemux].mkv
Формат : Matroska
Версия формата : Version 4 / Version 2
Размер файла : 3,94 Гбайт
Продолжительность : 24 м. 14 с.
Режим общего битрейта : Переменный
Общий поток : 23,3 Мбит/сек
Дата кодирования : UTC 2017-07-22 10:48:46
Программа кодирования : mkvmerge v12.0.0 ('Trust / Lust') 64bit
Библиотека кодирования : libebml v1.3.4 + libmatroska v1.4.5

Видео
Идентификатор : 1
Формат : AVC
Формат/Информация : Advanced Video Codec
Профиль формата : High@L4.1
Параметр CABAC формата : Да
Параметр ReFrames формата : 4 кадра
Идентификатор кодека : V_MPEG4/ISO/AVC
Продолжительность : 24 м. 14 с.
Вид битрейта : Переменный
Битрейт : 22,0 Мбит/сек
Максимальный битрейт : 39,5 Мбит/сек
Ширина : 1920 пикселей
Высота : 1080 пикселей
Соотношение сторон : 16:9
Режим частоты кадров : Постоянный
Частота кадров : 23,976 (24000/1001) кадра/сек
Цветовое пространство : YUV
Субдискретизация насыщенности : 4:2:0
Битовая глубина : 8 бит
Тип развёртки : Прогрессивная
Бит/(Пиксели*Кадры) : 0.442
Размер потока : 3,72 Гбайт (94%)
Default : Нет
Forced : Нет

Аудио #1
Идентификатор : 2
Формат : TrueHD
Идентификатор кодека : A_TRUEHD
Продолжительность : 24 м. 14 с.
Вид битрейта : Переменный
Битрейт : 802 Кбит/сек
Максимальный битрейт : 1239 Кбит/сек
Каналы : 2 канала
Расположение каналов : Front: C
Частота : 48,0 КГц
Частота кадров : 1200,000 кадров/сек (40 spf)
Метод сжатия : Без потерь
Размер потока : 139 Мбайт (3%)
Заголовок : TrueHD
Язык : Japanese
Default : Да
Forced : Нет

Аудио #2
Идентификатор : 3
Формат : AC-3
Формат/Информация : Audio Coding 3
Параметр Endianness формата : Big
Идентификатор кодека : A_AC3
Продолжительность : 24 м. 14 с.
Вид битрейта : Постоянный
Битрейт : 448 Кбит/сек
Каналы : 2 канала
Расположение каналов : Front: L R
Частота : 48,0 КГц
Частота кадров : 31,250 кадров/сек (1536 spf)
Битовая глубина : 16 бит
Метод сжатия : С потерями
Размер потока : 77,7 Мбайт (2%)
Заголовок : AC3
Язык : Japanese
ServiceKind/String : Complete Main
Default : Нет
Forced : Нет

Меню
00:00:00.000 : en:00:00:00.000
00:02:19.014 : en:00:02:19.014
00:03:49.020 : en:00:03:49.020
00:12:54.691 : en:00:12:54.691
00:22:37.106 : en:00:22:37.106
00:24:08.113 : en:00:24:08.113
...5149509
...5148656
--HDTVRip

...5220526
--BDRip

Эта раздача - BDRemux


Трекер:  [ 12-Авг-2017 23:01 ]

  

Скачать .torrent

Размер .torrent файла 75 KB


Размер: 54.14 GB
Хэш (hash) релиза: 4075563649123ee8b5ea079f9a6dc884ef466f8e
Подписка на обновления:

Торренты, похожие на Измерение «W» Dimension W скачать торрент

Форум Название Автор Размер S L Добавлен
Аниме | HD Rips ·· Измерение «W» / Dimension W (Камэй Канта) [TV] [6 из 12] [Без хардсаба] [RUS(ext), JAP+SUB] [2016 г., приключения, фантастика, BDRip] [1080p] Galfimbul 1240688520411.55 GB 0 0 1467918251

22:04

7-Июл-16

Аниме | Rips ·· Измерение «W» / Dimension W [TV] [12 из 12] [без хардсаба] [RUS(int), JAP+SUB] [2016 г., фантастика, приключения, сейнен, HDTVRip] [720p] Galfimbul 51122658344.76 GB 0 0 1466858848

15:47

25-Июн-16

Аниме | Rips ·· Измерение W / Dimension W [TV] [12 из 12] [Без хардсаба] [RUS(int), JAP+SUB] [2016 г., приключения, фантастика, драма, сэйнэн, HDTVRip] [HWP] Galfimbul 35354014883.29 GB 0 0 1464584219

07:56

30-Май-16

Аниме | Rips ·· Измерение W / Dimension W [TV] [01-11 из 12] [Без хардсаба] [RUS(int), JAP+SUB] [2016 г., приключения, фантастика, драма, сэйнэн, HDTVRip] [HWP] Galfimbul 32122263502.99 GB 0 0 1464110713

20:25

24-Май-16

Аниме | HD Rips ·· Измерение «W» / Dimension W (Камэй Канта) [TV] [4 из 12] [без хардсаба] [RUS(ext), JAP+SUB] [2016 г., фантастика, сейнен, BDRip] [1080p] Galfimbul 91380363308.51 GB 0 0 1462458710

17:31

5-Май-16

Аниме | Rips ·· Измерение «W» / Dimension W [TV] [12 из 12] [без хардсаба] [RUS(int), JAP+SUB] [2016 г., фантастика, приключения, сейнен, HDTVRip] [720p] Galfimbul 51122628144.76 GB 0 0 1459344796

16:33

30-Мар-16

Аниме | Rips ·· Измерение W / Dimension W [TV] [01-03 из >12] [Без хардсаба] [RUS(int), JAP+SUB] [2016 г., приключения, фантастика, драма, сэйнэн, HDTVRip] [HWP] Galfimbul 944113436900 MB 0 0 1454529384

22:56

3-Фев-16

Аниме | Rips ·· Измерение W / Dimension W [TV] [2 из 12] [JAP+SUB] & [1 из 12] [RUS(ext)] [Без хардсаба] [2016 г., сейнен, фантастика, HDTVRip 720p] Galfimbul 12261573871.14 GB 0 0 1453102005

10:26

18-Янв-16

Аниме | HD Rips ·· Измерение «W» / Dimension W (Камэй Канта) [TV] [Без хардсаба] [1 из 12] [JAP+SUB] & [1 из 12] [RUS(ext)] [2016 г., фантастика, сейнен HDTVRip] [720] Galfimbul 489832489467 MB 0 0 1452554633

02:23

12-Янв-16

Аниме | HD Rips ·· Измерение «W» / Dimension W [TV] [1 из 12] [без хардсаба] [JAP+SUB] [2016 г., фантастика, сейнен, HDTVRip] [720p] Galfimbul 403674303385 MB 0 0 1452448091

20:48

10-Янв-16

Еще никто не оставлял запись к записи скачать торрент Измерение «W» Dimension W . Будь первым!

!Обратная связь