Скачать через торрент Каннские львы 2006 Cannes Lions 2006 Фильм бесплатно в хорошем качестве torrent

Скачивайте на UnionPeer.org фильмы через торрент без регистрации. Новинки кино в хорошем качестве через торрент. На UnionPeer.org можно скачать через торрент фильмы 2014 и 2015 годов. Самые новые фильмы.

Скачать торрент Каннские львы 2006 Cannes Lions 2006 бесплатно через .torrent фильм мультфильм сериал

Если у вас наблюдаются проблемы со скриншотами, переходом по ссылками, скачиванием торрентов - проблемы в блокировщике рекламы AdBlock. #хорошегоДня!


Статистика раздачи
Размер:  1.19 GB   |    Зарегистрирован:  11 дней   |    .torrent скачан:  23 раза   |   
Раздают:  1  
   
Загрузка...
 
Автор Сообщение

Galfimbul

avatar Galfimbul


Cannes Lions 2006
Каннские львы 2006

Дата/Год выпуска: 2006
Страна: Франция, Великобритания
Жанр: Реклама, юмор
Продолжительность: 02:26:04
Оригинальная аудиодорожка: английский
Перевод: нет
Русские субтитры: нет

Описание:

НА АНГЛИЙСКОМ сборник лучших реклам за 2006

Фестиваль "Каннские Львы" - это событие, традиционно собирающее профессионалов в области мирового маркетинга и рекламы, а также самый престижный рекламный конкурс. Широкому зрителю он наиболее известен как конкурс рекламных роликов. Стильные, дорогие и ироничные, именно они составляют данный сборник, который будет интересен как профессионалам, так и просто любителям качественного видеоарта. Реклама может приносить удовольствие!

Качество: DVDRip
Формат: AVI
Видео: DivX 5 640x480 25fps
Аудио: MP3 44100Hz stereo 159kbps
GeneralFormat : AVIFormat/Info : Audio Video InterleaveFile size : 1.19 GiBDuration : 2 h 26 minOverall bit rate : 1 169 kb/sWriting application : VirtualDubMod 1.5.10.1 (build 2439/release)Writing library : VirtualDubMod build 2439/release

VideoID : 0Format : MPEG-4 VisualFormat settings, BVOP : 1Format settings, QPel : NoFormat settings, GMC : No warppointsFormat settings, Matrix : Default (H.263)Muxing mode : Packed bitstreamCodec ID : DX50Codec ID/Hint : DivX 5Duration : 2 h 26 minBit rate : 1 000 kb/sNominal bit rate : 6 951 kb/sWidth : 640 pixelsHeight : 480 pixelsDisplay aspect ratio : 4:3Frame rate : 25.000 FPSColor space : YUVChroma subsampling : 4:2:0Bit depth : 8 bitsScan type : ProgressiveCompression mode : LossyBits/(Pixel*Frame) : 0.130Stream size : 1.02 GiB (85%)Writing library : DivX 5.2.0 (UTC 2004-07-15)

AudioID : 1Format : MPEG AudioFormat version : Version 1Format profile : Layer 3Mode : Joint stereoCodec ID : 55Codec ID/Hint : MP3Duration : 2 h 26 minBit rate mode : ConstantBit rate : 160 kb/sChannel(s) : 2 channelsSampling rate : 44.1 kHzCompression mode : LossyStream size : 167 MiB (14%)Alignment : Split accross interleavesInterleave, duration : 40 ms (1.00 video frame)Interleave, preload duration : 500 ms
Все выпуски Каннских Львов

Трекер:  [ 12-Авг-2017 21:12 ]

  

Скачать .torrent

Размер .torrent файла 12 KB


Размер: 1.19 GB
Хэш (hash) релиза: 71133bff7a41417804793ada453205a8c93339ac
Подписка на обновления:

Еще никто не оставлял запись к записи скачать торрент Каннские львы 2006 Cannes Lions 2006 . Будь первым!

!Обратная связь