Скачать через торрент Рикки Спрокет - звезда шоубиза Ricky Sprocket: Showbiz Boy Фильм бесплатно в хорошем качестве torrent

Скачивайте на UnionPeer.org фильмы через торрент без регистрации. Новинки кино в хорошем качестве через торрент. На UnionPeer.org можно скачать через торрент фильмы 2014 и 2015 годов. Самые новые фильмы.

Скачать торрент Рикки Спрокет - звезда шоубиза Ricky Sprocket: Showbiz Boy бесплатно через .torrent фильм мультфильм сериал

Если у вас наблюдаются проблемы со скриншотами, переходом по ссылками, скачиванием торрентов - проблемы в блокировщике рекламы AdBlock. #хорошегоДня!


Статистика раздачи
Размер:  2.38 GB   |    Зарегистрирован:  2 месяца 4 дня   |    .torrent скачан:  25 раз   |   
Раздают:  1  
   
Загрузка...
 
Автор Сообщение

Galfimbul

avatar Galfimbul


Рикки Спрокет - звезда шоубиза / Ricky Sprocket: Showbiz Boy
Страна: США
Жанр: комедия, ситком
Продолжительность серии: 00:23:00
Год выпуска: 2007-2009
Перевод: Профессиональный (дублированный) [Арт-дубляж]
Русские субтитры: нетРежиссёр: Джош Мефам / Josh Mepham
Описание: Рикки Спрокет - самый известный актер среди детей. Несмотря на то, что Рикки снимается во многих фильмах, живет в особняке, он не дал вскружить голову славе и остаётся самым обычным ребёнком. Он любит тусоваться с друзьями и всё время враждует со звездой-девочкой - Киттен Кабудл. Так что да, Рикки приходится выполнять работу по дому и домашку в школе, когда он не сражается с роботами на съёмочной площадке.Ссылка на предыдущие и альтернативные раздачи:
Семпл: http://sendfile.su/1354802Качество: WEB-DL
Формат: MKV
Видео: AVC, 640x480, 23.97 fps, 1500 kbps
Аудио: AC3 2.0, 48.0 Hz, 2 ch, 192 kbps
Аудио 2: AAC 2.0, 48.0 Hz, 2 ch, 125 kbps
Субтитры: отсутствуют
ОбщееУникальный идентификатор : 218214043718652267047422787578978598919 (0xA42A7F00F513F17BAE9CEFC88CB38007)Полное имя : D:\Ricky Sprocket Showbiz Boy WEB-DL 480p\S01E01.The.Screen.Kiss.-.The.Boy.King.480p.WEB-DL.AAC2.0.H.264-SA89.mkvФормат : MatroskaВерсия формата : Version 4 / Version 2Размер файла : 297 МбайтПродолжительность : 22 м. 40 с.Общий поток : 1829 Кбит/секДата кодирования : UTC 2017-08-12 12:49:02Программа кодирования : mkvmerge v7.3.0 ('Nouages') 32bit built on Oct 22 2014 18:44:01Библиотека кодирования : libebml v1.3.0 + libmatroska v1.4.1

ВидеоИдентификатор : 1Формат : AVCФормат/Информация : Advanced Video CodecПрофиль формата : Baseline@L3Параметр CABAC формата : НетПараметр RefFrames формата : 1 кадрИдентификатор кодека : V_MPEG4/ISO/AVCПродолжительность : 22 м. 40 с.Битрейт : 1509 Кбит/секШирина : 640 пикселейВысота : 480 пикселейСоотношение сторон : 4:3Режим частоты кадров : ПостоянныйЧастота кадров : 23,976 (23976/1000) кадра/секЦветовое пространство : YUVСубдискретизация насыщенности : 4:2:0Битовая глубина : 8 битТип развёртки : ПрогрессивнаяБит/(Пиксели*Кадры) : 0.205Размер потока : 245 Мбайт (83%)Язык : EnglishDefault : ДаForced : НетЦветовой диапазон : LimitedОсновные цвета : BT.601 NTSCХарактеристики трансфера : BT.709Коэффициенты матрицы : BT.601

Аудио #1Идентификатор : 2Формат : AC-3Формат/Информация : Audio Coding 3Параметр Endianness формата : BigИдентификатор кодека : A_AC3Продолжительность : 22 м. 40 с.Вид битрейта : ПостоянныйБитрейт : 192 Кбит/секКаналы : 2 каналаРасположение каналов : Front: L RЧастота : 48,0 КГцЧастота кадров : 31,250 кадров/сек (1536 SPF)Битовая глубина : 16 битМетод сжатия : С потерямиРазмер потока : 31,1 Мбайт (10%)Заголовок : DUBЯзык : RussianServiceKind/String : Complete MainDefault : ДаForced : Нет

Аудио #2Идентификатор : 3Формат : AACФормат/Информация : Advanced Audio CodecПрофиль формата : LCИдентификатор кодека : A_AACПродолжительность : 22 м. 40 с.Битрейт : 125 Кбит/секКаналы : 2 каналаРасположение каналов : Front: L RЧастота : 44,1 КГцЧастота кадров : 43,066 кадра/сек (1024 SPF)Метод сжатия : С потерямиРазмер потока : 20,4 Мбайт (7%)Язык : EnglishDefault : НетForced : Нет


Трекер:  [ 12-Авг-2017 16:54 ]

  

Скачать .torrent

Размер .torrent файла 13 KB


Размер: 2.38 GB
Хэш (hash) релиза: fa82b311365039bf2a56ed635f097b9036905b13
Подписка на обновления:

Еще никто не оставлял запись к записи скачать торрент Рикки Спрокет - звезда шоубиза Ricky Sprocket: Showbiz Boy . Будь первым!

!Обратная связь