Скачать через торрент Камень сновидений The DreamStone Фильм бесплатно в хорошем качестве torrent

Скачивайте на UnionPeer.org фильмы через торрент без регистрации. Новинки кино в хорошем качестве через торрент. На UnionPeer.org можно скачать через торрент фильмы 2014 и 2015 годов. Самые новые фильмы.

Скачать торрент Камень сновидений The DreamStone бесплатно через .torrent фильм мультфильм сериал

Если у вас наблюдаются проблемы со скриншотами, переходом по ссылками, скачиванием торрентов - проблемы в блокировщике рекламы AdBlock. #хорошегоДня!


Статистика раздачи
Размер:  400 MB   |    Зарегистрирован:  8 дней   |    .torrent скачан:  14 раз   |   
Раздают:  1  
   
Загрузка...
 
Автор Сообщение

Galfimbul

avatar Galfimbul


Камень сновидений / The DreamStone

Страна: Великобритания
Жанр: Фэнтези, Детский, Приключения
Продолжительность серии: 00:22:00
Год выпуска: 1990–1995
Перевод: Профессиональный (дублированный)
Русские субтитры: нет

Режиссёр: Мартин Гейтс
Роли озвучивали: Жаклин Кларк, Мелвин Хэйес, Нэнси Хэндри, Гари Мартин, Ричард Тейт

Описание: Камень сновидений — Британский мультсериал, действие которого происходит в фэнтезийном альтернативном мире и связано, главным образом, с борьбой между добром (В лице Мастера сновидений) и злом (Олицетворяемым повелителем кошмаров Зордраком). Сюжет всех серий одинаковый и сводится к примерно одному сюжету — Зордрак отдаёт приказ своим приспешникам украсть Камень сновидений дабы его потом уничтожить, чтобы ночные кошмары охватили спящий мир. В осуществлении этих планов принимают участие: правая рука Зордрака злобный учёный Урпгор, который создаёт хитроумные машины и устройства для кражи камня сновидений, а также урпнеи, руководимые сержантом Блобом, типовым сержант-майором. В их обязанности входит пересечение Тумана лимба, чтобы попасть в Страну снов и с помощью устройств Урпгора украсть Каменнь Сновидений. План неизбежно проваливается, основной причиной этого является трусость и некомпетентность урпнеев, желание которых ограничиваются возвращением домой и получением сэндвичей. А в стране сновидений Урпнеям противостоят Уаты под предводительством Пилдита, его бабушка Уилдит, племянница Спилдит и другие Уаты, Воотлы которые живут под Землёй и помогают уатам выращивать деревья на которых созревают сосуды для сновидений, Нупы - Руфус и Эмберли, которые помогают Мастеру сновидений и его сторожевой рыбе Альберту создавать сны, и наконец сам Мастер сновидений. Вместе они охраняют и защищают камень сновидений чтобы во всём мире были добрые сновидения и небыло кошмаров.

Список серий:
13. Грандиозное нападение

Доп. информация: СПАСИБО ALEKS KV за помощь в синхронизации дорожки

Ссылка на предыдущие и альтернативные раздачи:
Качество: VHSRip
Формат: MP4
Видео: 640x480 (4:3), 25,000fps, ~2398kbps
Аудио: Русский, AC3 , 2 ch, 192 kbps, 48 kHz
Субтитры: отсутствуют
ОбщееПолное имя : C:\Documents and Settings\Admin\Мои документы\Downloads\The Dreamstone\s1e13 - Megattack.mp4Формат : MPEG-4Профиль формата : Base Media / Version 2Идентификатор кодека : mp42Размер файла : 400 МбайтПродолжительность : 21 м.Режим общего битрейта : ПеременныйОбщий поток : 2595 Кбит/секДата кодирования : UTC 2017-08-09 11:12:45Дата пометки : UTC 2017-08-09 11:12:45

ВидеоИдентификатор : 2Формат : AVCФормат/Информация : Advanced Video CodecПрофиль формата : High@L3.0Параметр CABAC формата : ДаПараметр ReFrames формата : 3 кадраИдентификатор кодека : avc1Идентификатор кодека/Информация : Advanced Video CodingПродолжительность : 21 м.Вид битрейта : ПеременныйБитрейт : 2398 Кбит/секМаксимальный битрейт : 4000 Кбит/секШирина : 640 пикселейВысота : 480 пикселейСоотношение сторон : 4:3Режим частоты кадров : ПостоянныйЧастота кадров : 25,000 кадров/секСтандарт вещания : NTSCЦветовое пространство : YUVСубдискретизация насыщенности : 4:2:0Битовая глубина : 8 битТип развёртки : ПрогрессивнаяБит/(Пиксели*Кадры) : 0.312Размер потока : 369 Мбайт (92%)Язык : EnglishДата кодирования : UTC 2017-08-09 11:12:45Дата пометки : UTC 2017-08-09 11:12:45Основные цвета : BT.601 NTSCХарактеристики трансфера : BT.601Коэффициенты матрицы : BT.601

АудиоИдентификатор : 1Формат : AACФормат/Информация : Advanced Audio CodecПрофиль формата : LCИдентификатор кодека : 40Продолжительность : 21 м.Вид битрейта : ПостоянныйБитрейт : 192 Кбит/секКаналы : channel0Original Channel count : 2 каналаРасположение каналов : Front: L RЧастота : 48,0 КГцМетод сжатия : С потерямиРазмер потока : 29,6 Мбайт (7%)Язык : EnglishДата кодирования : UTC 2017-08-09 11:12:45Дата пометки : UTC 2017-08-09 11:12:45


Трекер:  [ 11-Авг-2017 10:24 ]

  

Скачать .torrent

Размер .torrent файла 16 KB


Размер: 400 MB
Хэш (hash) релиза: a06558f3791f558789ef23691fab4485a048db6d
Подписка на обновления:

Еще никто не оставлял запись к записи скачать торрент Камень сновидений The DreamStone . Будь первым!

!Обратная связь