Скачать через торрент Золотая струна La Corda DOro бесплатно Аниме Все серии на русском torrent

Если у вас наблюдаются проблемы со скриншотами, переходом по ссылками, скачиванием торрентов - проблемы в блокировщике рекламы AdBlock. #хорошегоДня!


Статистика раздачи
Размер:  8.77 GB   |    Зарегистрирован:  2 месяца 8 дней   |    .torrent скачан:  21 раз   |   
Раздают:  1  
   
Загрузка...
 
Автор Сообщение

Galfimbul

avatar Galfimbul


Золотая струна / La Corda D'Oro / Primo Passo / The Golden Chord

Год выпуска: 2006
Страна: Япония
Жанр: романтика, комедия, музыкальный, сёдзё
Продолжительность: 25 эп. + 1 спэшл x 25 мин.
Перевод: одноголосый (Килька)
Русские субтитры: есть (idx + sub)
Хардсаб: нет
Режиссер: Оти Хирохито / Ochi Hirohito

Описание: У музыкальной школы «Сэйсо» необыкновенная история: ее основал человек, спасший жизнь музыкальному эльфу! В благодарность эльф пообещал благословить школу и дать ее воспитанникам возможность по-настоящему наслаждаться музыкой.
Хино Кахоко учится в обычном, не-музыкальном крыле Сэйсо. Она не играет ни на каких инструментах и вообще никак с музыкой не связана... до тех пор, пока не встречает Лили, того самого эльфа. А Лили уверяет, что у Хино-сан бесспорный талант, и потому ей надо - ни много, ни мало! - участвовать в общешкольном конкурсе, где будут состязаться лучшие студенты. В конкурсе выступят все звезды Сэйсо – харизматичный трубач Хихара, надменный скрипач Цукимори, загадочный виолончелист Симидзу, нежная кларнетистка Фуююми и несравненный флейтист Юноки. Как Хино впишется в такое блистательное общество? Как совладает со скрипкой, подаренной эльфом?..Сэмпл
01. Impossible Prelude
02. The Gavotte's Grim Future
03. The Anonymous-By-Request Chopin
04. Waltz Of The Lost Heart
05. Barefooted Vibrato
06. An Uneasy Polka
07. The Secretive Duet
08. Heart-Spinning Canon
09. The Concerto Of Serenity
10. The Virtuoso of Aloofness
11. The White And Black Adagio
12. The Guilty Pianissimo
13. Irreplaceable Melody
14. Capriccio Of A Maiden's Heart
15. Aria Of A Throbbing Heart
16. The Lying Violin
17. The Uneasy Crescendo
18. Partita of Grief
19. Pavan of the Losing Heart
20. Rondo of Tear Color
21. Andante Again
22. Fanfare for You
23. Our Cadenza
24. Heart-Filling Harmony
25. Beloved Ave Maria
+
Спэшл - Friendly Encore
Качество: DVDRip
Формат: AVI
Видео: XviD, 704x384(1.83:1), 23.976 fps, ~1606 kbps, 8 bit
Audio #1: 48 kHz, AC3, 2/0 (L,R) ch, ~192.00 kbps
Audio #2: 48 kHz, MP3, 2 ch, ~128.00 kbps
General
Complete name : ***\Zolotaja.struna.2006.01-02.of.25.avi
Format : AVI
Format/Info : Audio Video Interleave
File size : 679 MiB
Duration : 48mn 59s
Overall bit rate : 1 936 Kbps
Movie name : Kin iro no koruda: Primo passo
Genre : Comedy, Romance
Writing application : VirtualDubMod 1.5.10.2 (build 2540/release)
Original source form/Name : Anime
Comment : DVDRip by gera

Video
ID : 0
Format : MPEG-4 Visual
Format profile : Advanced Simple@L5
Format settings, BVOP : 4
Format settings, QPel : No
Format settings, GMC : No warppoints
Format settings, Matrix : Default (MPEG)
Muxing mode : Packed bitstream
Codec ID : XVID
Codec ID/Hint : XviD
Duration : 48mn 59s
Bit rate : 1 607 Kbps
Width : 704 pixels
Height : 384 pixels
Display aspect ratio : 1.85:1
Frame rate : 23.976 fps
Color space : YUV
Chroma subsampling : 4:2:0
Bit depth : 8 bits
Scan type : Progressive
Compression mode : Lossy
Bits/(Pixel*Frame) : 0.248
Stream size : 563 MiB (83%)
Writing library : XviD 1.2.1 (UTC 2008-12-04)

Audio #1
ID : 1
Format : AC-3
Format/Info : Audio Coding 3
Format profile : Dolby Digital
Mode extension : CM (complete main)
Format settings, Endianness : Big
Codec ID : 2000
Duration : 48mn 59s
Bit rate mode : Constant
Bit rate : 192 Kbps
Channel(s) : 2 channels
Channel positions : Front: L R
Sampling rate : 48.0 KHz
Compression mode : Lossy
Stream size : 67.3 MiB (10%)
Alignment : Split accross interleaves
Interleave, duration : 2665 ms (63.90 video frames)
Interleave, preload duratio : 64 ms

Audio #2
ID : 2
Format : MPEG Audio
Format version : Version 1
Format profile : Layer 3
Mode : Joint stereo
Mode extension : MS Stereo
Codec ID : 55
Codec ID/Hint : MP3
Duration : 48mn 59s
Bit rate mode : Constant
Bit rate : 128 Kbps
Channel(s) : 2 channels
Sampling rate : 48.0 KHz
Compression mode : Lossy
Stream size : 44.9 MiB (7%)
Alignment : Aligned on interleaves
Interleave, duration : 42 ms (1.00 video frame)
Interleave, preload duratio : 504 ms
Отличия
От этой раздачи:
- Наличие голосового перевода;

P.S. Рип с этих DVD

Трекер:  [ 09-Авг-2017 14:30 ]

  

Скачать .torrent

Размер .torrent файла 46 KB


Размер: 8.77 GB
Хэш (hash) релиза: b211353a3cb35ce2bc2130b4b9f2d8c29c345281
Подписка на обновления:

Торренты, похожие на Золотая струна La Corda DOro скачать торрент

Форум Название Автор Размер S L Добавлен
Аниме | Rips ·· Золотая струна / La Corda D'Oro / Primo Passo / The Golden Chord [TV][1-25 из 25][Special 1 из 1] [RUS (int), JAP+SUB][2006 г., романтика, комедия, музыкальный, сёдзё, DVDRip][Любительская] Nomak 94214124148.77 GB 0 0 1290021444

22:17

17-Ноя-10

Еще никто не оставлял запись к записи скачать торрент Золотая струна La Corda DOro . Будь первым!

!Обратная связь