Скачать через торрент Легенда о Тысячелетнем Драконе Onigamiden бесплатно Аниме Все серии на русском torrent

Если у вас наблюдаются проблемы со скриншотами, переходом по ссылками, скачиванием торрентов - проблемы в блокировщике рекламы AdBlock. #хорошегоДня!


Статистика раздачи
Размер:  3.33 GB   |    Зарегистрирован:  5 лет 11 месяцев   |    .torrent скачан:  51 раз   |   
Раздают:  1  
   
Загрузка...
 
Автор Сообщение

L


Легенда о Тысячелетнем Драконе | Onigamiden | Legend of the Millennium Dragon

Премьера: 29.04.2011
Страна:
Жанр: приключения, фэнтези
Продолжительность: полнометражный фильм, 100 мин.
Перевод:
  • русские субтитры от Greyman

Режиссер: Кавасаки Хироцугу
Автор оригинала: Такада Такафуми
Студия:
Описание: Это история о современном школьнике волею судьбы и авторов попавшем в битву между людьми и демонами, развернувшейся в Киото 1200 лет назад. Сможет ли он выжить в этой войне? В основе аниме – книга Такафуми Такада (Takafumi Takada).
© Olfor, World Art

Информационные ссылки: AniDB || World Art || ANN
Качество: BDRip (CHD)

Формат: MKV

Тип видео: Без хардсаба

Видео кодек: x264
Аудио кодек: DTS

Видео: MPEG4 Video (H264), 3343 Kbps, 1280x544, 23.98fps
Аудио : - DTS-HDMA, 1510 Kbps, 48KHz, 6ch
General
Unique ID : 225868341992519345288488206851349689115 (0xA9ECA90B998CE53CA761F5146CBC331B)
Complete name : D:\Аниме\Полнометражные аниме\Onigamiden (BD 720p)\Legend Of The Millennium Dragon BD_720p_CHD.mkv
Format : Matroska
Format version : Version 2
File size : 3.33 GiB
Duration : 1h 38mn
Overall bit rate : 4 851 Kbps
Movie name : 鬼神传.2011 by 游龙公子
Encoded date : UTC 2011-09-25 15:59:49
Writing application : mkvmerge v4.6.0 ('Still Crazy After All These Years') сборка от Mar 10 2011 02:50:32
Writing library : libebml v1.2.0 + libmatroska v1.1.0

Video
ID : 1
Format : AVC
Format/Info : Advanced Video Codec
Format profile : High@L4.1
Format settings, CABAC : Yes
Format settings, ReFrames : 12 frames
Muxing mode : Header stripping
Codec ID : V_MPEG4/ISO/AVC
Duration : 1h 38mn
Bit rate : 3 343 Kbps
Width : 1 280 pixels
Height : 544 pixels
Display aspect ratio : 2.35:1
Frame rate : 23.976 fps
Color space : YUV
Chroma subsampling : 4:2:0
Bit depth : 8 bits
Scan type : Progressive
Bits/(Pixel*Frame) : 0.200
Stream size : 2.23 GiB (67%)
Title : Legend.Of.The.Millennium.Dragon.2011
Writing library : x264 core 116 r2074+610 09ac020
Encoding settings : cabac=1 / ref=12 / deblock=1:-1:-1 / analyse=0x3:0x113 / me=umh / subme=10 / psy=1 / fade_compensate=0.00 / psy_rd=1.05:0.10 / mixed_ref=1 / me_range=32 / chroma_me=1 / trellis=2 / 8x8dct=1 / cqm=1 / deadzone=21,11 / fast_pskip=0 / chroma_qp_offset=-2 / threads=12 / sliced_threads=0 / nr=0 / decimate=1 / interlaced=0 / bluray_compat=0 / constrained_intra=0 / fgo=0 / bframes=6 / b_pyramid=2 / b_adapt=2 / b_bias=0 / direct=3 / weightb=1 / open_gop=0 / weightp=2 / keyint=250 / keyint_min=23 / scenecut=40 / intra_refresh=0 / rc_lookahead=40 / rc=2pass / mbtree=1 / bitrate=3343 / ratetol=1.0 / qcomp=0.70 / qpmin=3 / qpmax=69 / qpstep=4 / cplxblur=20.0 / qblur=0.5 / vbv_maxrate=40000 / vbv_bufsize=30000 / nal_hrd=none / ip_ratio=1.40 / aq=2:1.00
Language : Japanese

Audio
ID : 2
Format : DTS
Format/Info : Digital Theater Systems
Muxing mode : Header stripping
Codec ID : A_DTS
Duration : 1h 38mn
Bit rate mode : Constant
Bit rate : 1 510 Kbps
Channel(s) : 6 channels
Channel positions : Front: L C R, Side: L R, LFE
Sampling rate : 48.0 KHz
Bit depth : 24 bits
Compression mode : Lossy
Stream size : 1.04 GiB (31%)
Title : Japanese DTS-HDMA core 5.1 1509Kbps
Language : Japanese


Трекер:  [ 30-Сен-2011 08:00 ]

  

Скачать .torrent

Размер .torrent файла 17 KB


Размер: 3.33 GB
Хэш (hash) релиза: ca72f6aab07c6819f7217edc6ec4a03adbe47e2a
Подписка на обновления:

LonFas

у этой версии надеюсь нет рассинхронизации звука и видеопотока?

Хотите добавить комментарий к записи скачать торрент Легенда о Тысячелетнем Драконе Onigamiden

!Обратная связь