Скачать через торрент Волейбол!! Haikyuu!! бесплатно Аниме Все серии на русском torrent

Если у вас наблюдаются проблемы со скриншотами, переходом по ссылками, скачиванием торрентов - проблемы в блокировщике рекламы AdBlock. #хорошегоДня!


Статистика раздачи
Размер:  812 MB   |    Зарегистрирован:  9 дней   |    .torrent скачан:  28 раз   |   
Раздают:  1  
   
Загрузка...
 
Автор Сообщение

Galfimbul

avatar Galfimbul


Год выпуска: 2014 — 2015
Страна: Япония
Жанр: спорт, комедия, повседневность
Продолжительность: OVA, 2 эп. по 25 мин.
Режиссер: Мицунака Сусуму
Студия: Production I.G
Выпуск: эп.1 - 09.11.2014
Выпуск: эп.2 - 03.11.2015Описание OVA1:
Лев начинает играть в волейбол только в старшей школе. Возможно, уже поздно, и стоит забыть мечты о звании лучшего игрока. Но в волейболе есть правило: не сдаваться!
Премьерный показ на Jump Festa 2014, издавалось на DVD с 15 томом манги.© Shori-san .
Описание OVA2:
На носу поездка в Токио на тренировочные матчи, а Хината и Кагеяма завалили тест и не смогут поехать, пока не пересдадут его. Или все же смогут?
Премьерный показ на Jump Festa 2015, издавалось на DVD с 21 томом манги.© Horodep .Информационные ссылки: AniDB || World Art || MAL OVA1 || MAL OVA2Качество: DVDRip
Автор рипа: UCCUSS
Тип релиза: Без хардсаба; без линковки
Формат видео: MKV
Видео: MPEG4 (х264); 8 bit; 848x480; ~1900 Кбит/сек; 23.976 кадра/сек
Аудио: AC3; 48kHz; 2 канала; 448 Кбит/сек; язык: японский
Субтитры 1: ASS; внешние; язык: русский; перевод: YakuSub Studio
Субтитры 1: переводчик/перевод песен: Nika_Elrik, редактор: Harushechka, оформление: Helge
Субтитры 1: правка тайминга: Horodep
Субтитры 2: ASS; внешние; язык: английский; перевод: Commie
01. Haikyuu!!: Lev Genzan!
02. Haikyuu!!: vs "Akaten"
wakawaka666 - 2 эпизода
GeneralUnique ID : 175637000259537474005100717608286309963 (0x842274B03D9C7D0BACC403E97ABC4E4B)Complete name : \Haikyuu!! OVA [DVDRip 480p x264 AC3]\[UCCUSS] Haikyuu!! OAD (DVD 848x480p AVC AC3).mkvFormat : MatroskaFormat version : Version 4 / Version 2File size : 472 MiBDuration : 24 min 18 sOverall bit rate : 2 714 kb/sEncoded date : UTC 2016-05-12 04:47:31Writing application : mkvmerge v8.6.1 ('Flying') 32bitWriting library : libebml v1.3.3 + libmatroska v1.4.4

VideoID : 1Format : AVCFormat/Info : Advanced Video CodecFormat profile : High@L4.1Format settings, CABAC : YesFormat settings, ReFrames : 5 framesCodec ID : V_MPEG4/ISO/AVCDuration : 24 min 18 sBit rate : 2 212 kb/sWidth : 848 pixelsHeight : 480 pixelsDisplay aspect ratio : 16:9Frame rate mode : ConstantFrame rate : 23.976 (24000/1001) FPSColor space : YUVChroma subsampling : 4:2:0Bit depth : 8 bitsScan type : ProgressiveBits/(Pixel*Frame) : 0.227Stream size : 385 MiB (82%)Writing library : x264 core 148 r2597 e86f3a1Encoding settings : cabac=1 / ref=5 / deblock=1:0:0 / analyse=0x3:0x133 / me=umh / subme=9 / psy=1 / psy_rd=0.80:0.00 / mixed_ref=1 / me_range=32 / chroma_me=1 / trellis=2 / 8x8dct=1 / cqm=0 / deadzone=21,11 / fast_pskip=1 / chroma_qp_offset=-4 / threads=4 / lookahead_threads=1 / sliced_threads=0 / nr=0 / decimate=0 / interlaced=0 / bluray_compat=0 / constrained_intra=0 / bframes=5 / b_pyramid=2 / b_adapt=2 / b_bias=0 / direct=1 / weightb=1 / open_gop=0 / weightp=2 / keyint=240 / keyint_min=23 / scenecut=40 / intra_refresh=0 / rc_lookahead=50 / rc=crf / mbtree=1 / crf=15.0 / qcomp=0.70 / qpmin=10 / qpmax=42 / qpstep=4 / vbv_maxrate=50000 / vbv_bufsize=50000 / crf_max=0.0 / nal_hrd=none / filler=0 / ip_ratio=1.40 / aq=1:0.90Default : YesForced : No

AudioID : 2Format : AC-3Format/Info : Audio Coding 3Format settings, Endianness : BigCodec ID : A_AC3Duration : 24 min 18 sBit rate mode : ConstantBit rate : 448 kb/sChannel(s) : 2 channelsChannel positions : Front: L RSampling rate : 48.0 kHzFrame rate : 31.250 FPS (1536 spf)Bit depth : 16 bitsCompression mode : LossyStream size : 77.9 MiB (17%)Language : JapaneseService kind : Complete MainDefault : YesForced : No
Выбор видео, перевода, осуществляется релизером и не подлежит обсуждению. Если вы считаете, что раздаваемый материал противоречит правилам раздела "Аниме" rutracker.org, сообщите об этом одному из модераторов раздела.
Данный релиз предназначен для просмотра на ПК. Воспроизведение на иных проигрывателях не гарантируется.
Данный релиз предназначен для просмотра с внешними субтитрами. Для просмотра с субтитрами нужно:

для просмотра с русскими субтитрами:

установить шрифты из папки "RUS Subs » Fonts";

скопировать файлы .ass из папки "RUS Subs" в одну папку с видео - плеер подгрузит их автоматически при открытии видео.

для просмотра с английскими субтитрами:

установить шрифты из папки "ENG Subs » Fonts";

скопировать файлы .ass из папки "ENG Subs" в одну папку с видео - плеер подгрузит их автоматически при открытии видео.

Если у вас возникли проблемы с просмотром, не связанные с описанным выше, сообщите о них автору раздачи посредством сообщения в теме или ЛС Horodep.


Трекер:  [ 07-Авг-2017 22:30 ]

  

Скачать .torrent

Размер .torrent файла 18 KB


Размер: 812 MB
Хэш (hash) релиза: c542b718b54c1e53688e6ee840f88269b85a0db0
Подписка на обновления:

Торренты, похожие на Волейбол!! Haikyuu!! скачать торрент

Форум Название Автор Размер S L Добавлен
Аниме | Rips ·· Волейбол!! / Haikyuu!! / Haikyu!! [OVA] [1 из 1] [Без хардсаба] [JAP, SUB] [2015 г., сёнен, спорт, DVDRip] Galfimbul 189716674181 MB 0 0 1428230451

13:40

5-Апр-15

Аниме | HD Rips ·· Волейбол! / Haikyuu!! / Haikyu [TV] [21 из 25] [без хардсаба] [JAP+SUB] [2014 г., комедия, спорт, школа, HDTVRip] [720p] Galfimbul 54549676625.08 GB 0 0 1409347841

00:30

30-Авг-14

Аниме | HD Rips ·· Волейбол!! / Haikyuu!! / Haikyu!! [TV] [22 из 25] [Без хардсаба] [JAP, SUB] [2014 г., сёнен, спорт, WEBRip] [1080p] Galfimbul 1288505255512 GB 0 0 1402653348

12:55

13-Июн-14

Аниме | HD Rips ·· Волейбол!! 2 / Haikyuu!! Second Season / Haikyu!! 2nd Season [TV] [25 из 25] [Без хардсаба] [JAP+SUB] [2015, спорт, комедия, повседневность, BDRip] [1080p] Galfimbul 2399818848922.35 GB 0 0 1500962507

09:01

25-Июл-17

Аниме | HD Rips ·· Волейбол!! 2 / Haikyuu!! Second Season / Haikyu!! 2nd Season [TV] [25 из 25] [Без хардсаба] [JAP+SUB] [2015, спорт, комедия, повседневность, BDRip] [720p] Galfimbul 62373276525.81 GB 0 0 1500962504

09:01

25-Июл-17

Аниме | HD Rips ·· Волейбол!! Старшая Карасуно против академии Сираторидзава / Haikyu!! 3rd Season / Haikyuu!! Karasuno Koukou vs Shiratorizawa Gakuen Koukou [TV] [10 из 10] [Без хардсаба] [JAP, SUB] [2016, спорт, комедия, повседневность, BDRip] [720p] Galfimbul 28316972882.64 GB 0 0 1500849054

01:30

24-Июл-17

Аниме | HD Rips ·· Волейбол!! Старшая Карасуно против академии Сираторидзава / Haikyu!! 3rd Season / Haikyuu!! Karasuno Koukou vs Shiratorizawa Gakuen Koukou [TV] [10 из 10] [Без хардсаба] [JAP, SUB] [2016, спорт, комедия, повседневность, BDRip] [1080p] Galfimbul 105259655389.8 GB 0 0 1500847304

01:01

24-Июл-17

Еще никто не оставлял запись к записи скачать торрент Волейбол!! Haikyuu!! . Будь первым!

!Обратная связь