Скачать через торрент Твоё имя Kimi no Na wa. бесплатно Аниме Все серии на русском torrent

Если у вас наблюдаются проблемы со скриншотами, переходом по ссылками, скачиванием торрентов - проблемы в блокировщике рекламы AdBlock. #хорошегоДня!


Статистика раздачи
Размер:  20.76 GB   |    Зарегистрирован:  16 дней   |    .torrent скачан:  26 раз   |   
Раздают:  1  
   
Загрузка...
 
Автор Сообщение

Galfimbul

avatar Galfimbul


Год выпуска: 2016 | Страна: Япония
Жанр: романтика, драма, школа, сверхъестественное
Продолжительность: полнометражный фильм, 106 мин.Озвучка:
▪ #1 двухголосая муж/жен от Soer & MezIdA (DeadLine)
▪ #2 двухголосая муж/жен от Юрий Романов и Ульяна Романова (Timecraft)
▪ #3 двухголосая муж/жен от Тимиркан Сиюхов и Маргарита Щелкунова (LE-Production)Режиссер: Синкай Макото

Студия:

Описание: Мицуха Миямизу — обычная девушка, уставшая от жизни в провинции и мечтающая о большом городе. Но строгий отец Миямизу явно не намерен отпускать свою дочь из родного гнезда. Разочарованная в собственной судьбе Мицуха хотела бы стать парнем, ведь тогда отец не стал бы её удерживать.
Таки Тачибана — увлекающийся архитектурой старшеклассник, вынужденный работать на полставки, чтобы обеспечивать свою жизнь в Токио. Изнурённый темпом большого города, Тачибана мечтает о беззаботной жизни где-нибудь в горах. Недовольные собственной жизнью, Мицуха и Таки загадывают желание. Два совершенно разных подростка, чьи мечты исполнились. Но действительно ли это то, чего они хотели? AniDB World Art MALКачество: BDRip | Рип: LittleBakas+ANK-Raws&LKSUB+JYFanSub
Тип релиза: без хардсаба, без линковки
Формат видео: MKV
Видео: x265, Hi10P, 3840×2160, 23.976fps, 8 Mbps
Аудио JAP: FLAC, 48.0 kHz, 2.0 ch, 572 Kbps
Аудио JAP: FLAC, 48.0 kHz, 5.1 ch, 24 bit, 3000 Kbps
Аудио JAP: FLAC, 48.0 kHz, 5.1 ch, 16 bit, 1300 Kbps [Eng song ver]
Аудио JAP: FLAC, 48.0 kHz, 2.0 ch, 466 Kbps [Commentary]
Аудио RUS (ext) 1: FLAC, 48.0 kHz, 2.0 ch, 686 Kbps
Аудио RUS (ext) 2: FLAC, 48.0 kHz, 2.0 ch, 507 Kbps
Аудио RUS (ext) 3: FLAC, 48.0 kHz, 2.0 ch, 466 Kbps
<div class="post-box" style="border-color: #2f5f8e; background: #fefffe;">Перевод:

▪ субтитры от BBNG
переводчик: Алекс Миф, QC: Seiya

▪ субтитры от drnndy

▪ субтитры от 2nd Division
переводчики: DanielB, Atakaze, Q-Beast, редакторы: Imi, Tanegashi, оформление: DanielB

▪ субтитры от Shimizu & GMC
переводчик: Sovereign, оформление: DarkScorpio

▪ субтитры от Acit Na Morte Vos
переводчики: Lunitaria, Nexum, Akimira

▪ +english/japanese/chinese subtitles in .PGS
GeneralUnique ID : 252449019488540050564167218968106812016 (0xBDEBE9A092FDC7C0A8B42B3CD946C270)Complete name : c:\#my\[LittleBakas! x ANK-Raws&LKSUB x JYFanSub] 君の名は。 [BD 3840x2160 HEVC FLAC]\[LittleBakas! x ANK-Raws&LKSUB x JYFanSub] 君の名は。 [BD 3840x2160 HEVC-yuv444p10 FLACx4 PGSx4 Chap].mkvFormat : MatroskaFormat version : Version 4 / Version 2File size : 19.5 GiBDuration : 1 h 46 minOverall bit rate mode : VariableOverall bit rate : 26.2 Mb/sEncoded date : UTC 2017-08-05 20:45:52Writing application : mkvmerge v14.0.0 ('Flow') 64bitWriting library : libebml v1.3.4 + libmatroska v1.4.5Attachments : LittleBakas!

VideoID : 1Format : HEVCFormat/Info : High Efficiency Video CodingFormat profile : @L5@MainCodec ID : V_MPEGH/ISO/HEVCDuration : 1 h 46 minBit rate : 20.6 Mb/sWidth : 3 840 pixelsHeight : 2 160 pixelsDisplay aspect ratio : 16:9Frame rate mode : ConstantFrame rate : 23.976 (24000/1001) FPSColor space : YUVChroma subsampling : 4:4:4Bit depth : 10 bitsBits/(Pixel*Frame) : 0.104Stream size : 15.3 GiB (79%)Writing library : x265 2.5+4-b4a5bcfe29c7:[Windows][MSVC 1910][64 bit] 10bitEncoding settings : cpuid=1173503 / frame-threads=3 / numa-pools=8 / wpp / no-pmode / no-pme / no-psnr / ssim / log-level=2 / csvfn=Main.csv / csv-log-level=2 / input-csp=3 / input-res=3840x2160 / interlace=0 / total-frames=0 / level-idc=0 / high-tier=1 / uhd-bd=0 / ref=4 / no-allow-non-conformance / no-repeat-headers / annexb / no-aud / no-hrd / info / hash=0 / no-temporal-layers / no-open-gop / min-keyint=1 / keyint=720 / bframes=8 / b-adapt=2 / b-pyramid / bframe-bias=0 / rc-lookahead=40 / lookahead-slices=1 / scenecut=40 / no-intra-refresh / ctu=64 / min-cu-size=8 / no-rect / no-amp / max-tu-size=32 / tu-inter-depth=2 / tu-intra-depth=2 / limit-tu=4 / rdoq-level=2 / dynamic-rd=0.00 / ssim-rd / signhide / no-tskip / nr-intra=0 / nr-inter=0 / no-constrained-intra / no-strong-intra-smoothing / max-merge=4 / limit-refs=3 / limit-modes / me=3 / subme=3 / merange=57 / temporal-mvp / weightp / weightb / no-analyze-src-pics / deblock=0:0 / no-sao / no-sao-non-deblock / rd=4 / no-early-skip / rskip / no-fast-intra / no-tskip-fast / no-cu-lossless / b-intra / rdpenalty=2 / psy-rd=1.00 / psy-rdoq=0.00 / no-rd-refine / analysis-reuse-mode=0 / no-lossless / cbqpoffs=2 / crqpoffs=2 / rc=crf / crf=17.0 / qcomp=0.75 / qpstep=1 / stats-write=0 / stats-read=0 / ipratio=1.20 / pbratio=1.00 / aq-mode=1 / aq-strength=0.80 / cutree / zone-count=0 / no-strict-cbr / qg-size=16 / no-rc-grain / qpmax=69 / qpmin=0 / no-const-vbv / sar=0 / overscan=0 / videoformat=5 / range=0 / colorprim=1 / transfer=1 / colormatrix=1 / chromaloc=0 / display-window=0 / max-cll=0,0 / min-luma=0 / max-luma=1023 / log2-max-poc-lsb=8 / vui-timing-info / vui-hrd-info / slices=1 / opt-qp-pps / opt-ref-list-length-pps / no-multi-pass-opt-rps / scenecut-bias=0.05 / no-opt-cu-delta-qp / no-aq-motion / no-hdr / no-hdr-opt / no-dhdr10-opt / analysis-reuse-level=5 / scale-factor=0 / refine-intra=0 / refine-inter=0 / refine-mv=0 / no-limit-sao / ctu-info=0Language : JapaneseDefault : YesForced : NoColor range : LimitedColor primaries : BT.709Transfer characteristics : BT.709Matrix coefficients : BT.709

Audio #1ID : 2Format : FLACFormat/Info : Free Lossless Audio CodecCodec ID : A_FLACDuration : 1 h 46 minBit rate mode : VariableBit rate : 2 990 kb/sChannel(s) : 6 channelsChannel positions : Front: L C R, Side: L R, LFESampling rate : 48.0 kHzFrame rate : 11.719 FPS (4096 SPF)Bit depth : 24 bitsStream size : 2.23 GiB (11%)Title : Main (Surround)Writing library : libFLAC 1.3.1 (UTC 2014-11-25)Language : JapaneseDefault : YesForced : No

Audio #2ID : 3Format : FLACFormat/Info : Free Lossless Audio CodecCodec ID : A_FLACDuration : 1 h 46 minBit rate mode : VariableBit rate : 573 kb/sChannel(s) : 2 channelsChannel positions : Front: L RSampling rate : 48.0 kHzFrame rate : 11.719 FPS (4096 SPF)Bit depth : 16 bitsStream size : 437 MiB (2%)Title : Main (Stereo)Writing library : libFLAC 1.3.1 (UTC 2014-11-25)Language : JapaneseDefault : NoForced : No

Audio #3ID : 4Format : FLACFormat/Info : Free Lossless Audio CodecCodec ID : A_FLACDuration : 1 h 46 minBit rate mode : VariableBit rate : 1 392 kb/sChannel(s) : 6 channelsChannel positions : Front: L C R, Side: L R, LFESampling rate : 48.0 kHzFrame rate : 11.719 FPS (4096 SPF)Bit depth : 16 bitsStream size : 1.04 GiB (5%)Title : Theme Song English Version (Surround)Writing library : libFLAC 1.3.1 (UTC 2014-11-25)Language : JapaneseDefault : NoForced : No

Audio #4ID : 5Format : FLACFormat/Info : Free Lossless Audio CodecCodec ID : A_FLACDuration : 1 h 46 minBit rate mode : VariableBit rate : 588 kb/sChannel(s) : 2 channelsChannel positions : Front: L RSampling rate : 48.0 kHzFrame rate : 11.719 FPS (4096 SPF)Bit depth : 16 bitsStream size : 448 MiB (2%)Title : Voice Guide (Stereo)Writing library : libFLAC 1.3.1 (UTC 2014-11-25)Language : JapaneseDefault : NoForced : No

Text #1ID : 6Format : PGSMuxing mode : zlibCodec ID : S_HDMV/PGSCodec ID/Info : Picture based subtitle format used on BDs/HD-DVDsDuration : 1 h 45 minBit rate : 40.6 kb/sCount of elements : 3515Stream size : 30.6 MiB (0%)Title : JapaneseLanguage : JapaneseDefault : NoForced : No

Text #2ID : 7Format : PGSMuxing mode : zlibCodec ID : S_HDMV/PGSCodec ID/Info : Picture based subtitle format used on BDs/HD-DVDsDuration : 1 h 45 minBit rate : 30.7 kb/sCount of elements : 2456Stream size : 23.2 MiB (0%)Title : EnglishLanguage : EnglishDefault : NoForced : No

Text #3ID : 8Format : PGSMuxing mode : zlibCodec ID : S_HDMV/PGSCodec ID/Info : Picture based subtitle format used on BDs/HD-DVDsDuration : 1 h 45 minBit rate : 32.4 kb/sCount of elements : 2919Stream size : 24.4 MiB (0%)Title : ChineseLanguage : ChineseDefault : NoForced : No

Text #4ID : 9Format : PGSMuxing mode : zlibCodec ID : S_HDMV/PGSCodec ID/Info : Picture based subtitle format used on BDs/HD-DVDsDuration : 1 h 45 minBit rate : 27.2 kb/sCount of elements : 2297Stream size : 20.5 MiB (0%)Title : Theme Song English VersionLanguage : EnglishDefault : NoForced : No

Menu00:00:00.000 : ja:残響00:01:34.094 : ja:オープニング00:03:21.868 : ja:端緒00:05:13.271 : ja:宮水一家00:08:37.308 : ja:お前は誰だ?00:12:11.314 : ja:組紐00:14:32.371 : ja:口噛み酒00:17:22.500 : ja:東京00:22:57.918 : ja:奥寺先輩00:27:05.624 : ja:異変 100:28:16.570 : ja:異変 200:29:53.542 : ja:入れ替わりの日々00:32:42.836 : ja:御神体00:37:26.995 : ja:デート00:41:57.765 : ja:秋祭り00:44:30.334 : ja:断絶00:45:54.001 : ja:探訪00:48:28.656 : ja:消えた糸守町00:53:01.387 : ja:追求00:56:53.869 : ja:記憶01:03:42.318 : ja:再演01:06:03.793 : ja:作戦会議01:09:44.931 : ja:予感01:12:41.816 : ja:邂逅01:16:42.473 : ja:カタワレ時01:21:21.710 : ja:うつくしく、もがく01:29:12.806 : ja:恋01:32:51.858 : ja:あと少しだけ01:37:01.733 : ja:君の名は。01:41:19.615 : ja:スタッフ·クレジット
...5378058
...5378059
...5382468
2160p
</div>

Трекер:  [ 07-Авг-2017 16:01 ]

  

Скачать .torrent

Размер .torrent файла 30 KB


Размер: 20.76 GB
Хэш (hash) релиза: 95a2c2671f87cbbeb2ef063c0848ad834b88ad03
Подписка на обновления:

Торренты, похожие на Твоё имя Kimi no Na wa. скачать торрент

Форум Название Автор Размер S L Добавлен
Аниме | Rips ·· Твоё имя / Kimi no Na wa. / Your Name [Movie] [Без хардсаба] [RUS(int), JAP+SUB] [2016, романтика, драма, BDRip] [HWP] Galfimbul 18845597311.76 GB 0 0 1503342141

22:02

21-Авг-17

Аниме | Rips ·· Твоё имя / Kimi no Na wa. / Your Name. (Макото Синкай) [Movie] [Без хардсаба] [RUS(ext),JAP+SUB] [2016, романтика, драма, школа, сверхъестественное, BDRip] [2160p] Galfimbul 2209615328120.58 GB 0 0 1502110903

16:01

7-Авг-17

Аниме | Rips ·· Твоё имя / Kimi no Na wa / Your Name (Макото Синкай) [Movie] [Без хардсаба] [RUS(int), JAP] [2016, романтика, драма, школа, сверхъестественное, BDRip] [HWP] Galfimbul 13385461761.25 GB 0 0 1501164139

17:02

27-Июл-17

Аниме | Rips ·· Твоё имя / Kimi no Na wa / Your Name (Макото Синкай) [Movie] [Без хардсаба] [RUS(int), JAP] [2016, романтика, драма, школа, сверхъестественное, WEBRip] Galfimbul 24353116522.27 GB 0 0 1501164135

17:02

27-Июл-17

Аниме | Rips ·· Твоё имя / Kimi no Na wa. / Your Name. (Макото Синкай) [Movie] [Без хардсаба] [RUS(ext),JAP+SUB] [2016, романтика, драма, школа, сверхъестественное, BDRemux] [1080p] Galfimbul 2776574660725.86 GB 0 0 1501153355

14:02

27-Июл-17

Аниме | Rips ·· Твоё имя / Kimi no Na wa. / Your Name. (Макото Синкай) [Movie] [Без хардсаба] [RUS(ext),JAP+SUB] [2016, романтика, драма, школа, сверхъестественное, BDRip] [720p] Galfimbul 24267434232.26 GB 0 0 1501056140

11:02

26-Июл-17

Аниме | HD Rips ·· Твоё имя / Kimi no Na wa. / Your Name. (Макото Синкай) [Movie] [RUS(ext),JAP+SUB] [2016, романтика, драма, школа, сверхъестественное, BDRip] [1080p] Galfimbul 36020803073.35 GB 2 0 1501043508

07:31

26-Июл-17

Аниме | Rips ·· Твоё имя / Kimi no Na wa. / Your Name. (Макото Синкай) [Movie] [RUS(ext),JAP+SUB] [2016, романтика, драма, школа, сверхъестественное, BDRip] [1080p] Galfimbul 36730313143.42 GB 0 0 1501043487

07:31

26-Июл-17

Аниме | HD Rips ·· Твоё имя / Kimi no Na wa. / Your Name. (Макото Синкай) [Movie] [RUS(ext),JAP+SUB] [2016, романтика, драма, школа, сверхъестественное, BDRemux] [1080p] Galfimbul 2926596212327.26 GB 0 0 1500969724

11:02

25-Июл-17

Аниме | HD Rips ·· Твоё имя / Kimi no Na wa. / Your Name. (Макото Синкай) [Movie] [RUS(ext),JAP+SUB] [2016, романтика, драма, школа, сверхъестественное, BDRip] [720p] Galfimbul 23569881702.2 GB 0 0 1500967854

10:30

25-Июл-17

Аниме | HD Rips ·· Твоё имя / Kimi no Na wa / Your Name (Макото Синкай) [Movie] [Хардсаб] [RUS(int), JAP] [2016, романтика, драма, школа, сверхъестественное, WEBRip] [720p] Galfimbul 1033077068985 MB 2 0 1486423606

02:26

7-Фев-17

Аниме | Rips ·· Твоё имя / Kimi no Na wa / Your Name (Макото Синкай) [Movie] [Хардсаб] [RUS(int),JAP] [2016, романтика, драма, школа, сверхъестественное, DVDRip] Galfimbul 850082759811 MB 0 0 1481993787

19:56

17-Дек-16

Аниме | Rips ·· Твоё имя / Kimi no Na wa / Your Name [Movie] [Хардсаб] [RUS(int), JAP+SUB] [2016 г., романтика, драма, школа, сверхъестественное, DVDRip] [480p] Galfimbul 891909969851 MB 0 0 1473793271

22:01

13-Сен-16

Еще никто не оставлял запись к записи скачать торрент Твоё имя Kimi no Na wa. . Будь первым!

!Обратная связь