Скачать через торрент Цветочки после ягодок бесплатно Аниме Все серии на русском torrent

Если у вас наблюдаются проблемы со скриншотами, переходом по ссылками, скачиванием торрентов - проблемы в блокировщике рекламы AdBlock. #хорошегоДня!


Статистика раздачи
Размер:  3.43 GB   |    Зарегистрирован:  16 дней   |    .torrent скачан:  17 раз   |   
Раздают:  1  
   
Загрузка...
 
Автор Сообщение

Galfimbul

avatar Galfimbul


Цветочки после ягодок (ТВ) / Hana yori Dango / Boys Over Flowers
Страна: Япония
Год выпуска: 1996-1997
Жанр: комедия, романтика, повседневность
Тип: TV
Продолжительность: 51 эп. по ~24 мин.Режиссёр: Ямаути Сигэясу
Автор оригинала: Камио Ёко
Снято по манге: Hana Yori Dango
Студия: Toei AnimationОзвучка: Сэмпл
Двухголосная (муж./жен.) Kai & MioriСубтитры: есть
русские (внешние) полные (srt)
от Sayako Описание: Нелегка жизнь того, кто оказался не на своем месте в окружении чуждых ему людей. После долгих уговоров родителей Макино Цукуси, девушка из небогатой семьи, поступила в элитную академию Эйтоку, школу для состоятельных и обласканных жизнью…

Нетрудно представить себе, куда попала наша героиня: ложь, лицемерие и презрение к ближним с малых лет считаются здесь верными средствами достижения любой цели. Казалось бы, ситуация сложнее некуда – Макино надо противостоять окружающему обществу, при этом не скатываясь до уровня местных негодяев. Но нет! Цукуси умудрилась еще и влюбиться в члена банды F4, группы отпрысков самых богатых семей, а затем получить от этого скопища хулиганья объявление войны. Чем закончатся «школьные войны», поклонники хороших мелодрам узнают сами!
© Алексей Мелихов, World ArtКачество: DVDRip (R2J)
Релиз/Автор рипа: mottoj
Совместимость с бытовыми плеерами: Нет
Наличие линковки: Нет
Тип видео: без хардсаба
Формат: MKV
Видео: x264, 768x576, (4/3), ~3100кбит/с, 23,976fps, 10 bit
Аудио #1 (внешняя) русская - AAC, 2 ch, 192кбит/с, 48000Hz
Аудио #2 (в контейнере) японская - AC3, 2 ch, 384кбит/с, 48000Hz
* Чтобы смотреть с озвучкой, необходимо из папки к примеру Rus sound переписать файлы в папку, где находятся видеофайлы. Далее, следует запустить плеер и переключиться на mka-дорожку. Подробное описание здесь
* Чтобы смотреть 10-битное видео (10bit), необходимо, исходя из ваших предпочтений используемого проигрывателя, воспользоваться
этой инструкцией.
* Чтобы смотреть с субтитрами, необходимо из папки Rus subs переписать файлы в папку, где находятся видеофайлы. В большинстве плееров, одноимённые субтитры подключатся автоматически.
#1 Цветочки после ягодок [ТВ] - ТВ (51 эп.), адаптация манги, 1996
#2 Цветочки после ягодок (фильм) - к/ф, адаптация манги, 1997
01. Declaration of war!
02. The no-brand woman
03. I won't get hurt!
04. The commoner pair
05. Him, me and that guy
06. The one-night Cinderella
07. Night of love in Atami
08. Nightmare of the new semester
09. Doumyouji Tsukasa snaps!
10. The woman who left it all behind
11. Love flies high over the clouds
12. A date?! Snow in Omotesando
13. Love's swift development
14. Sakurako's hidden secret
15. Get lost!!
16. Believe in me!
17. Caught at last
18. Wanna go out with me?
19. The fluttering little bird in my heart
20. The hot night of betrayal
21. Crime & punishment of the kiss
22. Bewildering first date
23. Doumyouji Tsubaki shows up!
24. Love's storm! Banished from school!?
25. The couple's individual loves
26. The couple's sleepless night!
27. Doumyouji, off to New York!
28. Tsukushi, off to Canada!
29. The warmth of him!
30. Don't you want a friend?
31. Shock! The second red tag
32. Doumyouji...won't come?
33. Someday we'll laugh at this day
34. This girl is important to me!
35. Love's escape!?
36. The secret plan of Tsukasa's mother
37. The arranged confrontation!
38. I will train you!
39. The Evil triangle
40. Turning Point in the Romantic Tug
41. The Dawning of a New Day
42. Unexpected Double Date
43. The Wound in My Heart is Deep and Heavy
44. You're Not For Me
45. Why Don't you be Honest With Yourself?
46. Approaching Hurricane
47. Ripples from Transfer Student Shigeru's Arrival
48. Study Abroad, The Only Alternative
49. Our New Relationship
50. Shall We Finally Call It Quits?
51. Neverending
...5370107
...4114831
- альтернативная озвучка...279804
...283239
- наличие озвучки
Общее
Уникальный идентификатор : 172516523591799675503624317400360412069 (0x81C9794F7597B4A7AA2C43D3E7EFE3A5)
Полное имя : D:\Торренты №1\Hana yori Dango TV [DVDRip 576p]\[mottoj] Hana yori Dango - 01 (R2DVD 768x576 x264 Hi10p AC3).mkv
Формат : Matroska
Версия формата : Version 4 / Version 2
Размер файла : 609 Мбайт
Продолжительность : 24 м.
Общий поток : 3514 Кбит/сек
Дата кодирования : UTC 2017-08-03 13:36:09
Программа кодирования : mkvmerge v8.3.0 ('Over the Horizon') 64bit
Библиотека кодирования : libebml v1.3.1 + libmatroska v1.4.2

Видео
Идентификатор : 1
Формат : AVC
Формат/Информация : Advanced Video Codec
Профиль формата : High 10@L4.1
Параметр CABAC формата : Да
Параметр ReFrames формата : 5 кадров
Идентификатор кодека : V_MPEG4/ISO/AVC
Продолжительность : 24 м.
Битрейт : 3129 Кбит/сек
Ширина : 768 пикселей
Высота : 576 пикселей
Соотношение сторон : 4:3
Режим частоты кадров : Постоянный
Частота кадров : 23,976 (24000/1001) кадра/сек
Цветовое пространство : YUV
Субдискретизация насыщенности : 4:2:0
Битовая глубина : 10 бит
Тип развёртки : Прогрессивная
Бит/(Пиксели*Кадры) : 0.295
Размер потока : 542 Мбайт (89%)
Библиотека кодирования : x264 core 148 r2744 b97ae06
Настройки программы : cabac=1 / ref=5 / deblock=1:-1:-1 / analyse=0x3:0x133 / me=esa / subme=11 / psy=1 / psy_rd=0.90:0.00 / mixed_ref=1 / me_range=32 / chroma_me=1 / trellis=2 / 8x8dct=1 / cqm=0 / deadzone=21,11 / fast_pskip=0 / chroma_qp_offset=-2 / threads=12 / lookahead_threads=1 / sliced_threads=0 / nr=0 / decimate=1 / interlaced=0 / bluray_compat=0 / constrained_intra=0 / bframes=4 / b_pyramid=2 / b_adapt=2 / b_bias=1 / direct=3 / weightb=1 / open_gop=0 / weightp=2 / keyint=240 / keyint_min=23 / scenecut=40 / intra_refresh=0 / rc_lookahead=50 / rc=crf / mbtree=1 / crf=17.0 / qcomp=0.70 / qpmin=8 / qpmax=40 / qpstep=4 / vbv_maxrate=62500 / vbv_bufsize=78125 / crf_max=0.0 / nal_hrd=none / filler=0 / ip_ratio=1.40 / aq=1:1.10
Язык : Japanese
Default : Да
Forced : Нет
Цветовой диапазон : Limited
Основные цвета : BT.601 NTSC
Характеристики трансфера : BT.601
Коэффициенты матрицы : BT.601

Аудио
Идентификатор : 2
Формат : AC-3
Формат/Информация : Audio Coding 3
Расширение режима : CM (complete main)
Параметр Endianness формата : Big
Идентификатор кодека : A_AC3
Продолжительность : 24 м.
Вид битрейта : Постоянный
Битрейт : 384 Кбит/сек
Каналы : 2 канала
Расположение каналов : Front: L R
Частота : 48,0 КГц
Частота кадров : 31,250 кадров/сек (1536 spf)
Метод сжатия : С потерями
Размер потока : 66,5 Мбайт (11%)
Язык : Japanese
Default : Да
Forced : Нет

Меню
00:00:00.000 : :Chapter 1
00:01:45.272 : :Chapter 2
00:12:47.600 : :Chapter 3
00:21:55.982 : :Chapter 4
00:22:25.679 : :Chapter 5


Трекер:  [ 07-Авг-2017 13:01 ]

  

Скачать .torrent

Размер .torrent файла 19 KB


Размер: 3.43 GB
Хэш (hash) релиза: ce8aa7a5d8a1991666cce70ce5f46bcb4c197aab
Подписка на обновления:

Еще никто не оставлял запись к записи скачать торрент Цветочки после ягодок . Будь первым!

!Обратная связь