Скачать через торрент dиск канал. Расперчение Фильм бесплатно в хорошем качестве torrent

Скачивайте на UnionPeer.org фильмы через торрент без регистрации. Новинки кино в хорошем качестве через торрент. На UnionPeer.org можно скачать через торрент фильмы 2014 и 2015 годов. Самые новые фильмы.

Скачать торрент dиск канал. Расперчение бесплатно через .torrent фильм мультфильм сериал

Если у вас наблюдаются проблемы со скриншотами, переходом по ссылками, скачиванием торрентов - проблемы в блокировщике рекламы AdBlock. #хорошегоДня!


Статистика раздачи
Размер:  1.77 GB   |    Зарегистрирован:  14 дней   |    .torrent скачан:  22 раза   |   
Раздают:  1  
   
Загрузка...
 
Автор Сообщение

Galfimbul

avatar Galfimbul


dиск канал. Расперчение

Год выпуска: 2000
Страна: Россия
Жанр: интервью, музыкальное шоу
Продолжительность:00:30:36

Телеканал: ТВ-6 Москва

Ведущий: Николай Табашников

Описание: В выпуске музыкальные новости, интервью с DJ Грув и гр. Alphaville.

Треклист:
1. Жасмин – Летний день
2. гр. «Би-2» – Полковнику никто не пишет
3. Саша – Просто дождь
4. Татьяна Маркова – Белая роза

Доп. информация: В выпуске содержится реклама тех лет. Огромная благодарность Nekontroliruemij_devil за исходник!

Качество: VHSRip
Формат: MPG
Видео кодек: MPEG2
Аудио кодек: AC3
Видео: MPEG2 Video 720x576 (4:3) 25fps 7939kbps
Аудио: Dolby AC3 48000Hz stereo 192kbps
GeneralComplete name : dиск канал. Расперчение (2000) [ТВ-6 Москва].mpgFormat : MPEG-PSFile size : 1.77 GiBDuration : 30 min 35 sOverall bit rate mode : VariableOverall bit rate : 8 296 kb/sWriting library : (dvd5: Oct 27 2015)

VideoID : 224 (0xE0)Format : MPEG VideoFormat version : Version 2Format profile : Main@MainFormat settings, BVOP : NoFormat settings, Matrix : DefaultFormat settings, GOP : VariableFormat settings, picture struc : FrameDuration : 30 min 35 sBit rate mode : VariableBit rate : 7 939 kb/sMaximum bit rate : 8 200 kb/sWidth : 720 pixelsHeight : 576 pixelsDisplay aspect ratio : 4:3Frame rate : 25.000 FPSStandard : PALColor space : YUVChroma subsampling : 4:2:0Bit depth : 8 bitsScan type : InterlacedScan order : Top Field FirstCompression mode : LossyBits/(Pixel*Frame) : 0.766Time code of first frame : 00:00:00:00Time code source : Group of pictures headerGOP, Open/Closed : ClosedStream size : 1.70 GiB (96%)Writing library : (dvd5: Oct 27 2015)

AudioID : 189 (0xBD)-128 (0x80)Format : AC-3Format/Info : Audio Coding 3Mode extension : CM (complete main)Format settings, Endianness : BigMuxing mode : DVD-VideoDuration : 30 min 35 sBit rate mode : ConstantBit rate : 192 kb/sChannel(s) : 2 channelsChannel positions : Front: L RSampling rate : 48.0 kHzFrame rate : 31.250 FPS (1536 spf)Bit depth : 16 bitsCompression mode : LossyStream size : 42.0 MiB (2%)


Трекер:  [ 06-Авг-2017 22:12 ]

  

Скачать .torrent

Размер .torrent файла 18 KB


Размер: 1.77 GB
Хэш (hash) релиза: d0189dce72626f5ca8c9571d98270d84c2dfc266
Подписка на обновления:

Еще никто не оставлял запись к записи скачать торрент dиск канал. Расперчение . Будь первым!

!Обратная связь