Скачать через торрент Военная хроника маленькой девочки Youjo Senki бесплатно Аниме Все серии на русском torrent

Если у вас наблюдаются проблемы со скриншотами, переходом по ссылками, скачиванием торрентов - проблемы в блокировщике рекламы AdBlock. #хорошегоДня!


Статистика раздачи
Размер:  3.17 GB   |    Зарегистрирован:  2 месяца 12 дней   |    .torrent скачан:  63 раза   |   
Раздают:  1  
   
Загрузка...
 
Автор Сообщение

Galfimbul

avatar Galfimbul


Военная хроника маленькой девочки / Youjo Senki

Страна: Япония
Год выпуска: 2017 г.
Жанр: Приключения, магия, военный.
Тип: TV
Продолжительность: 12 эп. х ~24 мин.
Режиссер: Уэмура Ютака
Студия: NUT

Описание: Где-то в параллельном мире идет война. В первых рядах, среди суровых мужчин, маленькая девочка, со светлыми волосами, голубыми глазами и белоснежной кожей, она летает над полем боя и безжалостно уничтожает своих противников. Её имя - Таня Дегуршаф. Мало кто знает, что на самом деле она — это он. Он был одним из топ-менеджеров Японской корпорации, но, по воле разгневанного Бога, переродился в параллельном мире, как маленькая девочка. Ставя эффективность и карьерный рост превыше всего, он, а ныне она, приложит все усилия, чтобы добиться не меньшего положения в обществе, чем было в прошлой жизни.

Качество: BDRip [VintWolf (DS of BDRemux)]
Тип релиза: Без хардсаба
Наличие линковки: Нет
Формат видео: MKV
Совместимость с бытовыми (HD) плеерами: Да
Видео: х264, 1280x720, 8 bit, ~1200 Kbps, 23.976fps
Аудио 1: AC3, 48000Hz, 2ch, 192kbps, Язык Русский (в составе контейнера) l Озвучка многоголосая [AniDub]
Аудио 2: AC3, 48000Hz, 2ch, 192kbps, Язык Японский (в составе контейнера)
Субтитры 1 - 6: Русские внешние (отдельной папкой) *ass, *srt
Студийная Банда AD (ADStudio): BalFor & Торгиль & Влад Дуров & Cuba77 & Demetra & Esther [AniDub] l Сэмпл
1. Constantum & Sir Arthur [AniLibria]
2. PekaPeka & Kiragami & ShiYoru [AniPlay]
3. Makentosh & Хаттори & RazGildyai [AOS]
4. Elven_Tankman & Shifroval [GMC]
5. Yamada & Ristretto [SovetRomantica]
6. Aero & Sesha_Rim & Helge [YakuSub Studio]
<div class="sp-wrap">
<div class="sp-head folded">MediaInfo#</div>
<div class="sp-body">Complete name : E:\Video\Com\relizes\Youjo Senki [BDRip 720p HD]\Youjo Senki_01.mkv
Format : Matroska
Format version : Version 2
File size : 287 MiB
Duration : 23mn 40s
Overall bit rate : 1 694 Kbps
Encoded date : UTC 2017-07-31 13:45:08
Writing application : mkvmerge v7.0.0 ('Where We Going') 32bit built on Jun 9 2014 15:08:34
Writing library : libebml v1.3.0 + libmatroska v1.4.1

Video
ID : 1
Format : AVC
Format/Info : Advanced Video Codec
Format profile : High@L4.1
Format settings, CABAC : Yes
Format settings, ReFrames : 8 frames
Codec ID : V_MPEG4/ISO/AVC
Duration : 23mn 40s
Bit rate : 1 276 Kbps
Width : 1 280 pixels
Height : 720 pixels
Display aspect ratio : 16:9
Frame rate mode : Constant
Frame rate : 23.976 fps
Color space : YUV
Chroma subsampling : 4:2:0
Bit depth : 8 bits
Scan type : Progressive
Bits/(Pixel*Frame) : 0.058
Stream size : 216 MiB (75%)
Writing library : x264 core 130 r2273 b3065e6
Encoding settings : cabac=1 / ref=8 / deblock=1:-2:-2 / analyse=0x3:0x133 / me=umh / subme=9 / psy=1 / psy_rd=0.80:0.00 / mixed_ref=1 / me_range=24 / chroma_me=1 / trellis=2 / 8x8dct=1 / cqm=0 / deadzone=21,11 / fast_pskip=0 / chroma_qp_offset=-2 / threads=3 / lookahead_threads=1 / sliced_threads=0 / nr=0 / decimate=0 / interlaced=0 / bluray_compat=0 / constrained_intra=0 / bframes=8 / b_pyramid=2 / b_adapt=2 / b_bias=0 / direct=1 / weightb=1 / open_gop=0 / weightp=2 / keyint=240 / keyint_min=23 / scenecut=40 / intra_refresh=0 / rc=crf / mbtree=0 / crf=20.0 / qcomp=0.70 / qpmin=9 / qpmax=60 / qpstep=4 / ip_ratio=1.40 / pb_ratio=1.30 / aq=1:0.70
Default : Yes
Forced : No

Audio #1
ID : 2
Format : AC-3
Format/Info : Audio Coding 3
Mode extension : CM (complete main)
Format settings, Endianness : Big
Codec ID : A_AC3
Duration : 23mn 40s
Bit rate mode : Constant
Bit rate : 192 Kbps
Channel(s) : 2 channels
Channel positions : Front: L R
Sampling rate : 48.0 KHz
Bit depth : 16 bits
Compression mode : Lossy
Stream size : 32.5 MiB (11%)
Language : Russian
Default : Yes
Forced : No

Audio #2
ID : 3
Format : AC-3
Format/Info : Audio Coding 3
Mode extension : CM (complete main)
Format settings, Endianness : Big
Codec ID : A_AC3
Duration : 23mn 40s
Bit rate mode : Constant
Bit rate : 192 Kbps
Channel(s) : 2 channels
Channel positions : Front: L R
Sampling rate : 48.0 KHz
Bit depth : 16 bits
Compression mode : Lossy
Stream size : 32.5 MiB (11%)
Language : Japanese
Default : No
Forced : No
</div>
</div>
01. Демон Рейна
02. Пролог
03. Так хочет Бог
04. Студенческая жизнь
05. Мой первый батальон
06. Начало безумия
07. Битва за Фьорд
08. Испытание огнем
09. Приготовления к продвижению
10. Путь к победе
11. Сопротивление
12. Как использовать победу
...5338038 - BDRip, вес меньше, качество лучше:
<div class="sp-wrap">
<div class="sp-head folded">Сравнение</div>
<div class="sp-body">тут:
там:
...5400035 - Совместимость с бытовыми плеерами
...5433249 - 720p</div>
</div>

Трекер:  [ 05-Авг-2017 21:30 ]

  

Скачать .torrent

Размер .torrent файла 27 KB


Размер: 3.17 GB
Хэш (hash) релиза: 360f73d10c2248ab680ff93a5cc89d3133f9a031
Подписка на обновления:

ASSMERA

VintWolf красава, шикарное качество, а что ещё более важно - маленький вес, такими раздачи и должны быть. спасибо за раздачу!

Хотите добавить комментарий к записи скачать торрент Военная хроника маленькой девочки Youjo Senki

!Обратная связь