Скачать через торрент Победитель 7 выпуск от 2017.07.21 Фильм бесплатно в хорошем качестве torrent

Скачивайте на UnionPeer.org фильмы через торрент без регистрации. Новинки кино в хорошем качестве через торрент. На UnionPeer.org можно скачать через торрент фильмы 2014 и 2015 годов. Самые новые фильмы.

Скачать торрент Победитель 7 выпуск от 2017.07.21 бесплатно через .torrent фильм мультфильм сериал

Если у вас наблюдаются проблемы со скриншотами, переходом по ссылками, скачиванием торрентов - проблемы в блокировщике рекламы AdBlock. #хорошегоДня!


Статистика раздачи
Размер:  4.92 GB   |    Зарегистрирован:  4 месяца 6 дней   |    .torrent скачан:  21 раз   |   
Раздают:  1  
   
Загрузка...
 
Автор Сообщение

Galfimbul

avatar Galfimbul


Победитель 7 выпуск от 2017.07.21

Дата/Год выпуска: 2017
Страна: Россия
Жанр: Музыкальное Шоу
Продолжительность: 01:13:10
Перевод: Не требуется
Телеканал: Первый канал
Ведущий: Дмитрий Нагиев

Описание: "Первый канал" запускает новый музыкально-развлекательный проект, участникам которого предстоит не только бороться друг с другом за симпатии зрителей и жюри, но и преодолевать самих себя. "Победитель" - это не только музыкальные дуэли, но и психологические поединки. Сильнейшие участники из всех выпусков соберутся в финале, где экспертное жюри выберет победителя сезона. Участники проекта не ограничены в музыкальных жанрах (рок-, поп-, рэп, народная, классическая музыка и т.д.). На сцену поднимутся сольные исполнители, дуэты, трио и группы. В конкурсе принимают участие вокалисты разных возрастов. В каждом выпуске восемь конкурсантов проводят между собой музыкальные дуэли навылет до тех пор, пока на сцене не останется только один сильнейший. Выступления участников оценивает совет из 101 члена профессионального жюри, который представляет собой репрезентативную выборку всего российского общества. При этом каждый из членов жюри имеет музыкальное образование и абсолютный слух. После каждой музыкальной дуэли жюри выставляет свои оценки, но кому из вокалистов досталось больше голосов, до последнего остается тайной. Перед тем как объявить вердикт, ведущий предлагает тем, кто не уверен в своих силах, добровольно покинуть шоу с "отступными" на руках. В первом туре можно будет забрать 150 000 рублей, во втором - 250 000 рублей, в третьем - 500 000 рублей. Если участник выбрал деньги, он уходит из проекта, даже если позже выяснится, что жюри именно его признало победителем музыкальной дуэли. Если же участник решил остаться, а итог дуэли не в его пользу, он уходит без "отступных". Таким образом победить может лишь абсолютно уверенный в себе исполнитель! В финале шоу победитель проекта получает 3 000 000 рублей.

Качество: HDTV
Разрешение видео/развертка: 1080i
Контейнер: TS
Видео кодек: H.264
Аудио кодек: AC3
Видео: H264; 1920x1080 (16:9); 25.000 fps; ~ 9 420 kb/s
Аудио 1: AC3, 6 channels, 48000Hz, 384 Кбит/сек
Аудио 2: MPEG Audio 48000Hz stereo 192 Кбит/сек

Источник: Рир от olegka7373
GeneralID : 1 (0x1)Complete name : C:\Pobeditel'.07.HDTV(1080i).GeneralFilm.tsFormat : MPEG-TSFile size : 4.92 GiBDuration : 1 h 6 minOverall bit rate mode : VariableOverall bit rate : 10.5 Mb/s

VideoID : 1904 (0x770)Menu ID : 80 (0x50)Format : AVCFormat/Info : Advanced Video CodecFormat profile : High@L4Format settings, CABAC : YesFormat settings, ReFrames : 3 framesCodec ID : 27Duration : 1 h 6 minBit rate : 9 420 kb/sWidth : 1 920 pixelsHeight : 1 080 pixelsDisplay aspect ratio : 16:9Frame rate : 25.000 FPSStandard : ComponentColor space : YUVChroma subsampling : 4:2:0Bit depth : 8 bitsScan type : InterlacedScan type, store method : Separated fieldsScan order : Top Field FirstBits/(Pixel*Frame) : 0.182Stream size : 4.41 GiB (90%)Color range : LimitedColor primaries : BT.709Transfer characteristics : BT.709Matrix coefficients : BT.709

Audio #1ID : 2904 (0xB58)Menu ID : 80 (0x50)Format : AC-3Format/Info : Audio Coding 3Mode extension : CM (complete main)Format settings, Endianness : BigCodec ID : 6Duration : 1 h 6 minBit rate mode : ConstantBit rate : 384 kb/sChannel(s) : 6 channelsChannel positions : Front: L C R, Side: L R, LFESampling rate : 48.0 kHzFrame rate : 31.250 FPS (1536 spf)Bit depth : 16 bitsCompression mode : LossyStream size : 184 MiB (4%)Language : Russian

Audio #2ID : 2905 (0xB59)Menu ID : 80 (0x50)Format : MPEG AudioFormat version : Version 1Format profile : Layer 2Codec ID : 3Duration : 1 h 6 minBit rate mode : ConstantBit rate : 192 kb/sChannel(s) : 2 channelsSampling rate : 48.0 kHzCompression mode : LossyStream size : 92.0 MiB (2%)Language : Russian


Трекер:  [ 04-Авг-2017 20:12 ]

  

Скачать .torrent

Размер .torrent файла 25 KB


Размер: 4.92 GB
Хэш (hash) релиза: ca81b56970c568e26bf32259dbb9869e87ea45c9
Подписка на обновления:

Еще никто не оставлял запись к записи скачать торрент Победитель 7 выпуск от 2017.07.21 . Будь первым!

!Обратная связь