Скачать через торрент музыку [TR24] бесплатно без регистрации torrent

Если у вас наблюдаются проблемы со скриншотами, переходом по ссылками, скачиванием торрентов - проблемы в блокировщике рекламы AdBlock. #хорошегоДня!


Статистика раздачи
Размер:  1.05 GB   |    Зарегистрирован:  14 дней   |    .torrent скачан:  18 раз   |   
Раздают:  1  
   
Загрузка...
 
Автор Сообщение

Galfimbul

avatar Galfimbul


Cowboy Bebop: No Disc<var class="postImg postImgAligned img-right" title="https://puu.sh/x1wOC/b73c0c95e4.jpg">
</var>Жанр: Score, Anime OST, Jazz, Blues, Bop
Композитор: Yoko Kanno
Год выпуска: 1998 (2015)
Носитель: WEB
Производитель: Japan
Аудио кодек: FLAC (*.flac)
Тип рипа: tracks
Битрейт аудио: lossless
Продолжительность: 00:00:53:42
Разрядность/Частота дискретизации: 24bit/96kHz
Источник: APL (qurulu):: RG Soundtracks :: Wikipedia :: Discogs ::

01. The Seatbelts - American Money (1:08)02. Carla Vallet - Fantaisie Sign (5:20)03. Mai Yamane - Don't Bother None (3:41)04. The Seatbelts - Vitamin A (0:11)05. Masaaki Endo - LIVE in Baghdad (3:23)06. Gabriela Robin - Cats on Mars (2:47)07. Mai Yamane - Want It All Back (4:01)08. The Seatbelts - Bindy (2:19)09. Masayoshi Furukawa - You Make Me Cool (3:11)10. The Seatbelts - Vitamin B (0:11)11. Gabriela Robin - Green Bird (1:55)12. Pierre Bensusan - ELM (5:05)13. The Seatbelts - Vitamin C (0:07)14. The Seatbelts - Gateway (2:58)15. Tulivu-Donna Cumberbatch - The Singing Sea (4:40)16. The Seatbelts - The EGG and YOU (3:44)17. The Seatbelts - Forever Broke (3:34)18. Dj Food - Tank! (Power of Kung Food Remix) (5:28)
foobar2000 1.3.16 / Dynamic Range Meter 1.1.1log date: 2017-08-04 19:51:42

--------------------------------------------------------------------------------Analyzed: Carla Vallet / Cowboy Bebop: No Disc (1) Dj Food / Cowboy Bebop: No Disc (2) Gabriela Robin / Cowboy Bebop: No Disc (3-4) Mai Yamane / Cowboy Bebop: No Disc (5-6) Masaaki Endo / Cowboy Bebop: No Disc (7) Masayoshi Furukawa / Cowboy Bebop: No Disc (8) Pierre Bensusan / Cowboy Bebop: No Disc (9) The Seatbelts / Cowboy Bebop: No Disc (10-17) Tulivu-Donna Cumberbatch / Cowboy Bebop: No Disc (18)--------------------------------------------------------------------------------

DR Peak RMS Duration Track--------------------------------------------------------------------------------DR8 0.00 dB -10.52 dB 5:20 02-Fantaisie SignDR11 0.00 dB -13.95 dB 5:28 18-Tank! (Power of Kung Food Remix)DR10 0.00 dB -11.01 dB 2:47 06-Cats on MarsDR10 -0.90 dB -14.60 dB 1:55 11-Green BirdDR11 0.00 dB -13.67 dB 3:41 03-Don't Bother NoneDR7 0.00 dB -8.12 dB 4:01 07-Want It All BackDR7 0.00 dB -7.45 dB 3:23 05-LIVE in BaghdadDR9 0.00 dB -12.35 dB 3:11 09-You Make Me CoolDR11 0.00 dB -12.95 dB 5:05 12-ELMDR11 0.00 dB -12.61 dB 1:08 01-American MoneyDR12 -2.30 dB -14.57 dB 0:11 04-Vitamin ADR11 0.00 dB -12.52 dB 2:19 08-BindyDR14 -2.28 dB -16.05 dB 0:11 10-Vitamin BDR2 -0.69 dB -16.38 dB 0:07 13-Vitamin CDR12 0.00 dB -14.77 dB 2:58 14-GatewayDR12 0.00 dB -14.96 dB 3:44 16-The EGG and YOUDR15 0.00 dB -20.70 dB 3:34 17-Forever BrokeDR12 -0.01 dB -15.36 dB 4:40 15-The Singing Sea--------------------------------------------------------------------------------

Number of tracks: 18Official DR value: DR10

Samplerate: 96000 HzChannels: 2Bits per sample: 24Bitrate: 2537 kbpsCodec: FLAC================================================================================
<div class="q-wrap">
<div class="q-head"><b>Цитата:</b></div>
<div class="q">24-bit 96kHz Remaster offered in FLAC and WAV format using K2HD Processing.</div>
</div>

Трекер:  [ 04-Авг-2017 20:12 ]

  

Скачать .torrent

Размер .torrent файла 12 KB


Размер: 1.05 GB
Хэш (hash) релиза: 18f0111398ed92dc53b1d85804639cf38fe66cd1

Торренты, похожие на [TR24] скачать торрент

Форум Название Автор Размер S L Добавлен
Саундтреки к играм (lossless) ·· [TR24][OF] (Score) [WEB] Sudden Strike 4 (Original Game Soundtrack) (by Peter Antovszki) - 2017, FLAC (tracks), lossless Galfimbul 444715771424 MB 1 1 1503058328

15:12

18-Авг-17

Саундтреки к аниме (lossless) ·· [TR24] [OF] (Score, Anime OST, Jazz, Blues) [WEB] Cowboy Bebop: Vitaminless (by The Seatbelts) - 1998 (2014), FLAC (tracks), lossless Galfimbul 608436959580 MB 0 0 1501854165

16:42

4-Авг-17

Саундтреки к аниме (lossless) ·· [TR24] (Score, Anime OST, Modern Classical, Ambient) [WEB] Ghost In The Shell 2: Innocence Original Movie Soundtrack (by Kenji Kawai) - 2004 (2014), FLAC (tracks), lossless Galfimbul 979927633935 MB 0 0 1501600346

18:12

1-Авг-17

Саундтреки к аниме (lossless) ·· [TR24] (Score, Anime OST, Dark Ambient, Ambient) [WEB] Ghost In The Shell Original Soundtrack (by Kenji Kawai) - 1995 (2014), FLAC (tracks), lossless Galfimbul 935361823892 MB 0 0 1501573332

10:42

1-Авг-17

Саундтреки к аниме (lossless) ·· [TR24] (Score, Anime OST, Ambient) [WEB] Stand Alone Complex - Solid State Society O.S.T. (by Yoko Kanno) - 2006 (2015), FLAC (tracks), lossless Galfimbul 12583687961.17 GB 0 0 1501533735

23:42

31-Июл-17

Саундтреки к аниме (lossless) ·· [TR24] (Score, Anime OST, Downtempo) [WEB] Cowboy Bebop Blue (by The Seatbelts) - 1999, FLAC (tracks), lossless Galfimbul 14851254891.38 GB 0 0 1501526535

21:42

31-Июл-17

Электронная музыка (lossless) ·· [TR24][WEB] Gas - Gas 0095 - 2008 (Micro-000001) FLAC (Techno, Experimental, Ambient) Galfimbul 751327072717 MB 0 0 1497110662

19:04

10-Июн-17

Саундтреки к играм (lossless) ·· [TR24][OF][GM] #Breakforcist by Pete Ellison (2017) (FLAC) (Score / Electronic, House) Galfimbul 554290678529 MB 0 0 1494504345

15:05

11-Май-17

Саундтреки к играм (lossless) ·· [TR24][OF][GM] Cosmic Star Heroine by HyperDuck SoundWorks (2017) (FLAC) (Score / Funk, Electronic, Retro-Inspired) Galfimbul 14378864931.34 GB 0 0 1494502627

14:37

11-Май-17

Электронная музыка (lossless) ·· (Electro) [WEB] Goldfrapp - Silver Eye (TR24) - 2017, FLAC (tracks), lossless Galfimbul 532723846508 MB 0 0 1491061888

18:51

1-Апр-17

Саундтреки к играм (lossless) ·· [TR24][OF][GM] Broforce by Deon van Heerden (2015) (FLAC) (Score / Cinematic, Metal) Galfimbul 813828694776 MB 0 0 1472047822

17:10

24-Авг-16

Саундтреки к аниме (lossless) ·· [TR24] (Score, Anime OST, Jazz) [CD] Mobile Suit Gundam Thunderbolt Original Soundtrack (by Naruyoshi Kikuchi) - 2016, FLAC (tracks), lossless Galfimbul 13292197811.24 GB 0 0 1466885828

23:17

25-Июн-16

Саундтреки к играм (lossless) ·· (Score) [TR24][OF][GM] Far Cry 3 (by Brian Tyler) - 2012 (Score) (Brian Tyler) - 2012, FLAC (tracks+.cue), lossless Galfimbul 723491709690 MB 0 0 1457373591

20:59

7-Мар-16

Саундтреки к играм (lossless) ·· [TR24][OF][GM] Hacknet by Various Artists (2015) (FLAC) (Soundtrack / Electronic, Trance) Galfimbul 548282197523 MB 0 0 1454761571

15:26

6-Фев-16

Саундтреки к фильмам и мультфильмам (mp3) ·· [TR24][SM][OF] Spark - Wild Territories: Ince- Songs in Other Words; Vivaldi- Concerto in G Major; Telemann- Concerto in E Minor; Bunch- Alpha Dog (Spark Quintet) - 2015 (Classical) Galfimbul 649086957619 MB 0 0 1453231211

22:20

19-Янв-16

Саундтреки к фильмам и мультфильмам (lossless) ·· [TR24][OF][WEB][Score] Интерстеллар / Interstellar [Deluxe Version] (by Hans Zimmer) [24bit] - 2014, FLAC (tracks), lossless Galfimbul 928928369886 MB 0 0 1420143578

23:19

1-Янв-15

Электронная музыка (mp3) ·· [TR24][OF][WEB](Synth Pop) CHVRCHES - The Bones Of What You Believe (Deluxe Version) - 2013, FLAC 24bit/44.1kHz (tracks), lossless Galfimbul 838500055800 MB 0 0 1386124216

05:30

4-Дек-13

Электронная музыка (mp3) ·· [TR24][OF] (Electronic/Synthwave/Chillwave) Mitch Murder - Selection One {WEB} - 2012, FLAC (tracks), lossless Galfimbul 650512582620 MB 0 0 1370811560

23:59

9-Июн-13

Электронная музыка (mp3) ·· [TR24][OF] (Electronic/Synthwave/Chillwave) Mitch Murder - Current Events {WEB} - 2011, FLAC (tracks), lossless Galfimbul 521319400497 MB 0 0 1370811556

23:59

9-Июн-13

Еще никто не оставлял запись к записи скачать торрент [TR24] . Будь первым!

!Обратная связь