Скачать через торрент Кибер-команда Акихабары бесплатно Аниме Все серии на русском torrent

Если у вас наблюдаются проблемы со скриншотами, переходом по ссылками, скачиванием торрентов - проблемы в блокировщике рекламы AdBlock. #хорошегоДня!


Статистика раздачи
Размер:  1.94 GB   |    Зарегистрирован:  2 месяца 13 дней   |    .torrent скачан:  22 раза   |   
Раздают:  1  
   
Загрузка...
 
Автор Сообщение

Galfimbul

avatar Galfimbul


Кибер-команда Акихабары (фильм) / Akihabara Dennou-gumi: 2011 Nen no Natsuyasumi / Cyberteam in Akihabara - 2011 Summer Vacations

Страна: Япония
Год выпуска: 1999
Жанр: фантастика, фэнтези, комедия, приключения
Тип: Movie
Продолжительность: полнометражный фильм, 60 мин.
Режиссер: Хасэгава Кацуми
Описание: Летниче каникулы прекрасная пора. Однако Земле вновь угрожает опасность и Хибари с подругами снова придётся её спасти.

Доп. информация: Релиз GSGroup

Качество: DVDRip
Тип релиза: Без хардсаба
Формат видео: MKV
Релиз/Автор рипа: Релиз GSGroup/dimdimich
Совместимость с бытовыми плеерами: Нет
Видео: x264, 1280x720, 23.976 fps, 4231 Kbps, 8 bits
Аудио: AC-3, 48.0 KHz, 192 Kbps, 2 channels Язык Русский (в составе контейнера) ; Озвучка: женская одноголосая: Persona99
Аудио 2: AC-3, 48.0 KHz, 192 Kbps, 2 channels Язык Японский
Субтитры: ass внешние Язык субтитров русский
Субтитры 2: srt внешние Язык субтитров русский ; Перевод 2: VZbitten
ОбщееУникальный идентификатор : 181383729553534336339476005653322601306 (0x88753C51684D3DC68B5DC5CEBECB135A)Полное имя : E:\downloads\Cyberteam in Akihabara Movie\Akihabara Dennou-gumi 2011 Nen no Natsuyasumi [Prtsona99].mkvФормат : MatroskaВерсия формата : Version 4 / Version 2Размер файла : 1,94 ГбайтПродолжительность : 1 ч. 0 м.Общий поток : 4617 Кбит/секДата кодирования : UTC 2017-08-04 13:55:22Программа кодирования : mkvmerge v14.0.0 ('Flow') 64bitБиблиотека кодирования : libebml v1.3.4 + libmatroska v1.4.5

ВидеоИдентификатор : 1Формат : AVCФормат/Информация : Advanced Video CodecПрофиль формата : High@L3.1Параметр CABAC формата : НетПараметр RefFrames формата : 3 кадраИдентификатор кодека : V_MPEG4/ISO/AVCПродолжительность : 1 ч. 0 м.Битрейт : 4231 Кбит/секШирина : 1280 пикселейВысота : 720 пикселейСоотношение сторон : 16:9Режим частоты кадров : ПостоянныйЧастота кадров : 23,976 (24000/1001) кадра/секЦветовое пространство : YUVСубдискретизация насыщенности : 4:2:0Битовая глубина : 8 битТип развёртки : ПрогрессивнаяБит/(Пиксели*Кадры) : 0.191Размер потока : 1,78 Гбайт (92%)Библиотека кодирования : x264 core 146 r2538 121396cНастройки программы : cabac=0 / ref=3 / deblock=1:0:0 / analyse=0x3:0x113 / me=umh / subme=8 / psy=1 / psy_rd=1.00:0.00 / mixed_ref=1 / me_range=16 / chroma_me=1 / trellis=1 / 8x8dct=1 / cqm=0 / deadzone=21,11 / fast_pskip=1 / chroma_qp_offset=-2 / threads=12 / lookahead_threads=2 / sliced_threads=0 / nr=0 / decimate=1 / interlaced=0 / bluray_compat=0 / constrained_intra=0 / bframes=3 / b_pyramid=0 / b_adapt=2 / b_bias=0 / direct=3 / weightb=0 / open_gop=0 / weightp=0 / keyint=250 / keyint_min=23 / scenecut=40 / intra_refresh=0 / rc_lookahead=50 / rc=crf / mbtree=1 / crf=18.0 / qcomp=0.60 / qpmin=0 / qpmax=69 / qpstep=4 / vbv_maxrate=9500 / vbv_bufsize=9500 / crf_max=0.0 / nal_hrd=none / filler=0 / ip_ratio=1.40 / aq=1:1.00Default : ДаForced : Нет

Аудио #1Идентификатор : 2Формат : AC-3Формат/Информация : Audio Coding 3Параметр Endianness формата : BigИдентификатор кодека : A_AC3Продолжительность : 1 ч. 0 м.Вид битрейта : ПостоянныйБитрейт : 192 Кбит/секКаналы : 2 каналаРасположение каналов : Front: L RЧастота : 48,0 КГцЧастота кадров : 31,250 кадров/сек (1536 SPF)Битовая глубина : 16 битМетод сжатия : С потерямиРазмер потока : 82,5 Мбайт (4%)Заголовок : RussianЯзык : RussianServiceKind/String : Complete MainDefault : ДаForced : Нет

Аудио #2Идентификатор : 3Формат : AC-3Формат/Информация : Audio Coding 3Параметр Endianness формата : BigИдентификатор кодека : A_AC3Продолжительность : 1 ч. 0 м.Вид битрейта : ПостоянныйБитрейт : 192 Кбит/секКаналы : 2 каналаРасположение каналов : Front: L RЧастота : 48,0 КГцЧастота кадров : 31,250 кадров/сек (1536 SPF)Битовая глубина : 16 битМетод сжатия : С потерямиРазмер потока : 82,5 Мбайт (4%)Заголовок : JapaneseЯзык : JapaneseServiceKind/String : Complete MainDefault : НетForced : Нет

...4793808
Lanczos4Resize(656, 432)
Lanczos4Resize(656, 352)
В моей вариации изображение уже 1280х720 в контейнере отсутствует субтитры ass
- мой 656, 369
Там
- 656, 432
- 656, 352
Аудио дорожки 192, а не 320 Kbps и 448 Kbps

Трекер:  [ 04-Авг-2017 19:30 ]

  

Скачать .torrent

Размер .torrent файла 20 KB


Размер: 1.94 GB
Хэш (hash) релиза: 157f446de14cc4cb7f6364be0a691613a7101621
Подписка на обновления:

Еще никто не оставлял запись к записи скачать торрент Кибер-команда Акихабары . Будь первым!

!Обратная связь