Скачать через торрент Сельско-лесное хозяйство Nourin бесплатно Аниме Все серии на русском torrent

Если у вас наблюдаются проблемы со скриншотами, переходом по ссылками, скачиванием торрентов - проблемы в блокировщике рекламы AdBlock. #хорошегоДня!


Статистика раздачи
Размер:  3.38 GB   |    Зарегистрирован:  2 месяца 13 дней   |    .torrent скачан:  33 раза   |   
Раздают:  1  
   
Загрузка...
 
Автор Сообщение

Galfimbul

avatar Galfimbul


Сельско-лесное хозяйство / Nourin

Страна: Япония
Год выпуска: 2014 г.
Жанр: комедия, пародия, этти
Тип: TV
Продолжительность: 12 эп, ~25 мин. серия
Режиссер: Онума Син
Студия: Silver Link

Озвучка:
одноголосая от Persona99 (женская)

техподдержка: goodwingОписание: Популярность молодежных идолов скоротечна: сегодня ты звезда, а завтра никто, уходить надо вовремя. Именно поэтому певица Юка Кусакабэ на пике карьеры оставила шоу-бизнес и покинула шумный Токио. 17-летней девушке надоели огни рампы, захотелось отдохнуть и почувствовать себя человеком. Подумав, она поступила в сельскохозяйственную школу Тамо под своим настоящим именем - Ринго Киносита. Ринго считала, что среди лесов и полей префектуры Гифу люди живут в гармонии с природой и далеки от городских соблазнов; в очках и без грима ее никто не узнает. В первом бывшая звездочка была права, а во втором крупно ошибалась!

Конечно же, именно во втором «А» школы Тамо и в общежитии «Зеленополье», куда поселили героиню, жил-поживал Косаку Хата, истовый фанат Юки Кусакабэ. Когда парень увидел, что его богиня входит в класс и представляется чужим именем, он серьезно усомнился в своем здоровье, а когда разобрался, то понял, что это судьба. Пускай хмурая и язвительная Ринго не похожа на солнечную Юку – верному рыцарю все равно. У местных девчат, особенно у Минори Накадзавы, на этот счет было свое мнение, но мы-то с вами знаем! Общество простых и неиспорченных ребят – лучшее лекарство для издерганного сердца и мятущейся души. Случайностей в мире не бывает – и почаще посылайте любимым огурцы и баклажаны!

© Hollow, World Art

Доп. информация: Дословный перевод термина No-rin - «Сельское и лесное хозяйство», это часть названия школы, где происходит действие сериала.

Интересно, что обе фамилии главной героини тоже связаны с природой: псевдоним Кусакабэ значит «зеленая изгородь», а настоящее имя Киносита значит «подлесок».

Качество: HDTVRip
Тип релиза: Без хардсаба
Формат видео: AVI
Автор рипа:
Видео: 704x396, 23.976 fps, XviD ~ 1 646 Kbps
Аудио: Русская / 2 ch / AC-3 / 48 kHz / 192 Kbps / RUS(int) [озвучка: Persona99]
Аудио 2: Японская / 2 ch / AC-3 / 48 kHz / 192 Kbps
Субтитры: *srt, *ass Язык субтитров русский Перевод команды ХУНТА и Фрателли переводчик, оформитель, таймер - Сова редактор - Женя ака Зуб
GeneralComplete name : E:\видео\Аниме\Nourin\Nourin - 01.aviFormat : AVIFormat/Info : Audio Video InterleaveFile size : 351 MiBDuration : 23mn 59sOverall bit rate : 2 044 KbpsWriting application : VirtualDubModRus 1.5.10.2 (build 2542/release)Writing library : VirtualDubMod build 2542/release

VideoID : 0Format : MPEG-4 VisualFormat profile : Advanced Simple@L5Format settings, BVOP : 2Format settings, QPel : NoFormat settings, GMC : No warppointsFormat settings, Matrix : Default (H.263)Codec ID : XVIDCodec ID/Hint : XviDDuration : 23mn 59sBit rate : 1 646 KbpsWidth : 704 pixelsHeight : 396 pixelsDisplay aspect ratio : 16:9Frame rate : 23.976 fpsColor space : YUVChroma subsampling : 4:2:0Bit depth : 8 bitsScan type : ProgressiveCompression mode : LossyBits/(Pixel*Frame) : 0.246Stream size : 283 MiB (81%)Writing library : XviD 64

Audio #1ID : 1Format : AC-3Format/Info : Audio Coding 3Mode extension : CM (complete main)Format settings, Endianness : BigCodec ID : 2000Duration : 23mn 59sBit rate mode : ConstantBit rate : 192 KbpsChannel(s) : 2 channelsChannel positions : Front: L RSampling rate : 48.0 KHzCompression mode : LossyStream size : 33.0 MiB (9%)Alignment : Split accross interleavesInterleave, duration : 42 ms (1.00 video frame)Interleave, preload duration : 500 msTitle : Persona99

Audio #2ID : 2Format : AC-3Format/Info : Audio Coding 3Mode extension : CM (complete main)Format settings, Endianness : BigCodec ID : 2000Duration : 23mn 59sBit rate mode : ConstantBit rate : 192 KbpsChannel(s) : 2 channelsChannel positions : Front: L RSampling rate : 48.0 KHzCompression mode : LossyStream size : 33.0 MiB (9%)Alignment : Split accross interleavesInterleave, duration : 42 ms (1.00 video frame)Interleave, preload duration : 500 msTitle : Japanese
<div style="margin-left: 2em" class="post-ul">01. Сельский Романс
02. Король Фермеров
03. Великие Тещины Войны
04. Твоя улыбка
05. Четверка великой фермерской пятерки
06. Цельно-отросший алхимик
07. Ешь все, что дают
08. Бабуся кухонная
09. Школошорты
10. Великий и Величественный: Война Овощей
11. Веселое село
12. Твое фермерство и лесничество
</div>
...4649220 - альт озвучка
Сэмплик https://yadi.sk/i/8m9OCxcV3LiCxw

Трекер:  [ 04-Авг-2017 15:01 ]

  

Скачать .torrent

Размер .torrent файла 19 KB


Размер: 3.38 GB
Хэш (hash) релиза: 09391dd0e11cb56456b4128925cc15751de1dc64
Подписка на обновления:

Торренты, похожие на Сельско-лесное хозяйство Nourin скачать торрент

Форум Название Автор Размер S L Добавлен
Аниме | HD Rips ·· Сельско-лесное хозяйство / Nourin / No-Rin (Онума Син) [TV] [6 из 12] [без хардсаба] [RUS(ext), JAP+SUB] [2014 г., комедия, пародия, этти, BDRip] [1080p] Galfimbul 106907187519.96 GB 0 0 1411077651

01:00

19-Сен-14

Аниме | HD Rips ·· Сельско-лесное хозяйство / Nourin / No-Rin (Онума Син) [TV] [08 из 12] [Без хардсаба] [JAP, RUS(ext), SUB] [2014 г., комедия, романтика, этти, BDRip] [1080p] Galfimbul 1414627369913.17 GB 0 0 1409349644

01:00

30-Авг-14

Аниме | HD Rips ·· Сельско-лесное хозяйство / Nourin / No-Rin (Онума Син) [TV] [10 из 12] [Без хардсаба] [JAP, RUS(ext), SUB] [2014 г., комедия, романтика, этти, BDRemux] [1080p] Galfimbul 109529160628102.01 GB 0 0 1409340654

22:30

29-Авг-14

Аниме | Rips ·· Сельско-лесное хозяйство / Nourin / No-Rin (Онума Син) [TV] [6 из 12] [без хардсаба] [RUS(ext), JAP+SUB] [2014 г., комедия, пародия, этти, BDRip] [720p] Galfimbul 47673273034.44 GB 0 0 1409056018

15:26

26-Авг-14

Аниме | HD Rips ·· Сельско-лесное хозяйство / Nourin / No-Rin [TV] [01-11 из 12] [Без хардсаба] [RUS(int), JAP + SUB] [2014 г., комедия, HDTVRip] [720p] Polarnik 42870966743.99 GB 0 0 1393150413

13:13

23-Фев-14

Аниме | Rips ·· Сельско-лесное хозяйство / Nourin (Онума Син) [TV] [05 из 12] [без хардсаба] [RUS(int), JAP + SUB] [2014 г., комедия, HDTVRip] [HWP] Polarnik 16303016391.52 GB 0 0 1392991734

17:08

21-Фев-14

Аниме | HD Rips ·· Сельско-лесное хозяйство / Nourin (Онума Син) [TV] [01-11 из 12] [без хардсаба] [RUS(int), JAP+SUB] [2014 г., комедия, романтика, HDTVRip] [720p] Polarnik 40170008743.74 GB 0 0 1392982971

14:42

21-Фев-14

Аниме | HD Rips ·· Сельско-лесное хозяйство / А при чем тут овощи? / Nourin [TV] [1-12 из 12] [Без хардсаба] [JAP, SUB] [2014 г., романтика, HDTVRip] [720p] Polarnik 38562545293.59 GB 0 0 1397292624

11:50

12-Апр-14

Еще никто не оставлял запись к записи скачать торрент Сельско-лесное хозяйство Nourin . Будь первым!

!Обратная связь