Скачать через торрент Тайны Майка Тайсона Mike Tyson Mysteries Фильм бесплатно в хорошем качестве torrent

Скачивайте на UnionPeer.org фильмы через торрент без регистрации. Новинки кино в хорошем качестве через торрент. На UnionPeer.org можно скачать через торрент фильмы 2014 и 2015 годов. Самые новые фильмы.

Скачать торрент Тайны Майка Тайсона Mike Tyson Mysteries бесплатно через .torrent фильм мультфильм сериал

Если у вас наблюдаются проблемы со скриншотами, переходом по ссылками, скачиванием торрентов - проблемы в блокировщике рекламы AdBlock. #хорошегоДня!


Статистика раздачи
Размер:  343 MB   |    Зарегистрирован:  15 дней   |    .torrent скачан:  29 раз   |   
Раздают:  1  
   
Загрузка...
 
Автор Сообщение

Galfimbul

avatar Galfimbul


Тайны Майка Тайсона / Mike Tyson Mysteries

Страна: США
Жанр: мультфильм, комедия, детектив
Продолжительность серии: 00:10:57
Год выпуска: 2014
Перевод: Одноголосый закадровый NewStation
Русские субтитры: нет

Режиссёр: Этан Сполдинг, Джефф Сьергей / Ethan Spaulding, Jeff Siergey
Роли озвучивали: Майк Тайсон, Норм МакДональд, Рэйчел Дугай, Джим Рэш, Хью Дэвидсон

Описание: Майк Тайсон — главный персонаж мультипликационного сериала «Тайны Майка Тайсона». Он расстался со спортом и теперь готов посвятить себя расследованиям самых загадочных происшествий. Боксеру помогает дружная команда: голубь, который когда-то был человеком, приемная дочь, а также призрак маркиза Куинсберри.

Речь пойдет о самых удивительных событиях из жизни темнокожего спортсмена. Этот парень покажет, на что он способен, а подбирать выражения он не станет, ведь тот, кто окажется на пути Майка получит по заслугам. Тайны Майка Тайсона — это череда удивительных и невероятных расследований, что наверняка оценят поклонники детективного жанра.
Список серий:
0.1 Концовка / The End

Доп. информация: В сериале присутствует ненормативная лексика.

Качество: WEB-DL
Формат: MKV
Видео: AVC, 1916x1076, 16:9, 23.976 кадров/сек, ~3610 Кбит/сек
Аудио #1: [RUS] 48 kHz, AC-3, 6ch, ~384 Кбит/сек
Аудио #2: [ENG] 48 kHz, AC-3, 6ch, ~384 Кбит/сек
Субтитры: Английские

Сэмпл
Все раздачи мультсериала
GeneralUnique ID : 250275429383276884712952688111093952771 (0xBC494B5C7226FEAE980671F4561E3103)Complete name : E:\Mike.Tyson.Mysteries.S01E01.The.End.1080p.WEB-DL.DD5.1.H.264-BTN (1).mkvFormat : MatroskaFormat version : Version 4 / Version 2File size : 343 MiBDuration : 10 min 57 sOverall bit rate : 4 381 kb/sEncoded date : UTC 2017-08-03 22:24:12Writing application : mkvmerge v13.0.0 ('The Juggler') 64bitWriting library : libebml v1.3.4 + libmatroska v1.4.5

VideoID : 1Format : AVCFormat/Info : Advanced Video CodecFormat profile : High@L4Format settings, CABAC : YesFormat settings, RefFrames : 4 framesCodec ID : V_MPEG4/ISO/AVCDuration : 10 min 57 sBit rate : 3 610 kb/sWidth : 1 916 pixelsHeight : 1 076 pixelsDisplay aspect ratio : 16:9Frame rate mode : ConstantFrame rate : 23.976 (23976/1000) FPSColor space : YUVChroma subsampling : 4:2:0Bit depth : 8 bitsScan type : ProgressiveBits/(Pixel*Frame) : 0.073Stream size : 283 MiB (82%)Language : EnglishDefault : YesForced : NoColor range : LimitedColor primaries : BT.709Transfer characteristics : BT.709Matrix coefficients : BT.709

Audio #1ID : 2Format : AC-3Format/Info : Audio Coding 3Format settings, Endianness : BigCodec ID : A_AC3Duration : 10 min 56 sBit rate mode : ConstantBit rate : 384 kb/sChannel(s) : 6 channelsChannel positions : Front: L C R, Side: L R, LFESampling rate : 48.0 kHzFrame rate : 31.250 FPS (1536 SPF)Bit depth : 16 bitsCompression mode : LossyStream size : 30.1 MiB (9%)Title : Rus NewStationService kind : Complete MainDefault : YesForced : No

Audio #2ID : 3Format : AC-3Format/Info : Audio Coding 3Format settings, Endianness : BigCodec ID : A_AC3Duration : 10 min 57 sBit rate mode : ConstantBit rate : 384 kb/sChannel(s) : 6 channelsChannel positions : Front: L C R, Side: L R, LFESampling rate : 48.0 kHzFrame rate : 31.250 FPS (1536 SPF)Bit depth : 16 bitsCompression mode : LossyStream size : 30.1 MiB (9%)Title : OriginalLanguage : EnglishService kind : Complete MainDefault : NoForced : No

TextID : 4Format : UTF-8Codec ID : S_TEXT/UTF8Codec ID/Info : UTF-8 Plain TextDuration : 10 min 22 sBit rate : 345 b/sCount of elements : 383Stream size : 26.2 KiB (0%)Language : EnglishDefault : NoForced : No


Трекер:  [ 04-Авг-2017 02:24 ]

  

Скачать .torrent

Размер .torrent файла 14 KB


Размер: 343 MB
Хэш (hash) релиза: 672885e339abc899e46f454cae46b20c06ce30cd
Подписка на обновления:

Еще никто не оставлял запись к записи скачать торрент Тайны Майка Тайсона Mike Tyson Mysteries . Будь первым!

!Обратная связь