Скачать через торрент Цыган Фильм бесплатно в хорошем качестве torrent

Скачивайте на UnionPeer.org фильмы через торрент без регистрации. Новинки кино в хорошем качестве через торрент. На UnionPeer.org можно скачать через торрент фильмы 2014 и 2015 годов. Самые новые фильмы.

Скачать торрент Цыган бесплатно через .torrent фильм мультфильм сериал

Если у вас наблюдаются проблемы со скриншотами, переходом по ссылками, скачиванием торрентов - проблемы в блокировщике рекламы AdBlock. #хорошегоДня!


Статистика раздачи
Размер:  4.3 GB   |    Зарегистрирован:  2 месяца 15 дней   |    .torrent скачан:  30 раз   |   
Раздают:  1  
   
Загрузка...
 
Автор Сообщение

Galfimbul

avatar Galfimbul


Цыган

Страна: СССР
Жанр: драма
Год выпуска: 1979
Продолжительность: 05:37:37

Перевод: Оригинал
Субтитры: нет
Оригинальная аудиодорожка: русская

Режиссер: Александр Бланк

В ролях: Михай Волонтир, Клара Лучко, Алексей Никульников, Ольга Жулина, Нина Русланова, Майя Булгакова, Леонид Неведомский, Матлюба Алимова, Софья Тимофеева, Рудик Овсепян

Описание: Молодая деревенская женщина, Клавдия Пухлякова, находит у раздавленной танками кибитки цыганского мальчика. Пожалев ребенка, она берет его домой и растит как собственного сына. Проходит 17 лет.
Однажды в селе появляется цыган Будулай, одинокий, много переживший человек. Он очень быстро завоевывает симпатии приемного сына Пухляковой. Подозревая, что Будулай и есть отец ее цыганенка, Клавдия опасается, что покой семьи будет нарушен…

Меню: есть, статичное

Тип релиза: DVD5
Контейнер: DVD-Video

Видео: PAL 4:3 (352x576(0.288)) MPEG Video, 25,000 кадр/сек, 1458 Кбит/сек
Аудио: Russian (Dolby AC-3, 2 ch) 192 Кбит/сек, 48.0 КГц
Общее
Полное имя : Cigan\VIDEO_TS\VTS_04_1.VOB
Формат : MPEG-PS
Размер файла : 1024 Мбайт
Продолжительность : 1 ч. 25 м.
Режим общего битрейта : Переменный
Общий поток : 1683 Кбит/сек

Видео
Идентификатор : 224 (0xE0)
Формат : MPEG Video
Версия формата : Version 2
Профиль формата : Main@Main
Параметр BVOP формата : Да
Параметр матрицы формата : Выборочная
Параметр GOP формата : Variable
Структура изображения : Frame
Продолжительность : 1 ч. 25 м.
Вид битрейта : Переменный
Битрейт : 1458 Кбит/сек
Максимальный битрейт : 3200 Кбит/сек
Ширина : 352 пикселя
Высота : 576 пикселей
Соотношение сторон : 4:3
Частота кадров : 25,000 кадров/сек
Стандарт вещания : PAL
Цветовое пространство : YUV
Субдискретизация насыщенности : 4:2:0
Битовая глубина : 8 бит
Тип развёртки : Чересстрочная
Порядок развёртки : Верхнее поле первое
Метод сжатия : С потерями
Бит/(Пиксели*Кадры) : 0.288
Временной код первого кадра : 00:00:00:00
Оригинал временного кода : Group of pictures header
GOP, открыто/закрыто : Закрыто
Размер потока : 887 Мбайт (87%)

Аудио
Идентификатор : 189 (0xBD)-128 (0x80)
Формат : AC-3
Формат/Информация : Audio Coding 3
Параметр Endianness формата : Big
Режим смешивания : DVD-Video
Продолжительность : 1 ч. 25 м.
Вид битрейта : Постоянный
Битрейт : 192 Кбит/сек
Каналы : 2 канала
Расположение каналов : Front: L R
Частота : 48,0 КГц
Частота кадров : 31,250 кадров/сек (1536 spf)
Битовая глубина : 16 бит
Метод сжатия : С потерями
Размер потока : 117 Мбайт (11%)
ServiceKind/String : Complete Main


Трекер:  [ 03-Авг-2017 20:36 ]

  

Скачать .torrent

Размер .torrent файла 12 KB


Размер: 4.3 GB
Хэш (hash) релиза: c90e5b6c442b062add319eee8ae0f51f79ea24d0
Подписка на обновления:

Торренты, похожие на Цыган скачать торрент

Форум Название Автор Размер S L Добавлен
Документальные фильмы и телепередачи ·· Американские цыгане: Вторжение на чужую территорию / Американские цыгане: South Beach Invasion (Эндрю Крисс, Питер Лайпер) [2012, Документальный, реалити, социология, SATRip] Galfimbul 649784628620 MB 0 0 1361759786

05:36

25-Фев-13

Зарубежные фильмы до 2016 ·· Король цыган / Цыганский Король / King of the Gypsies (Фрэнк Пирсон / Frank Pierson) [1978, США, драма, BDRemux 1080p] 2x DVO (НТВ+, ТВ6) + AVO (Кашкин) + Original Eng Galfimbul 2344882657621.84 GB 0 0 1459960156

19:29

6-Апр-16

Документальные фильмы и телепередачи ·· Бремя цыган (Борис Соболев) [2016, проблемы глобализации, HDTV 1080i] Galfimbul 57112546325.32 GB 0 0 1459016335

21:18

26-Мар-16

Документальные фильмы и телепередачи ·· Бремя Цыган. Фильм Бориса Соболева (Борис Соболев) [2016, Документальный, HDTVRip-AVC] Galfimbul 11808307031.1 GB 0 0 1458761981

22:39

23-Мар-16

Документальные фильмы и телепередачи ·· Бремя Цыган. Фильм Бориса Соболева (Борис Соболев) [2016, Документальный, HDTVRip 720p] Galfimbul 29238876282.72 GB 0 0 1458710161

08:16

23-Мар-16

Документальные фильмы и телепередачи ·· На ночь глядя. Евгений Цыганов (05.02.2015) [2015, Тв-шоу, Интервью, HDTV 1080i] Galfimbul 33666526763.14 GB 0 0 1423173900

01:05

6-Фев-15

Мультфильмы до 2016 ·· Джи и Цыган / Dji and Tigan (Дмитрий Волошин / Dmitri Voloshin) [2009, короткометражный анимационный фильм, WEBRip] Galfimbul 1742848017 MB 0 0 1421405199

13:46

16-Янв-15

Документальные фильмы и телепередачи ·· Американские цыгане / American Gypsies (1 сезон: 4 серии из 9) [2011, Документальный, SATRip] L 22025512742.05 GB 0 0 1368045677

23:41

8-Май-13

Документальные фильмы и телепередачи ·· Американские цыгане: Соперники [2012, Документальный, SATRip] L 544753664520 MB 0 0 1365799128

23:38

12-Апр-13

Зарубежные фильмы до 2016 ·· Цыган / Le Gitan (Жозе Джованни / Jose Giovanni) [1975 г., драма, DVDRip] Galfimbul 14755368961.37 GB 0 0 1364810044

12:54

1-Апр-13

Зарубежные фильмы до 2016 ·· Цыган / Le gitan / The Gypsy (Жозе Джованни / Jose Giovanni) [1975 г., драма, криминал, DVDRip] DVO Galfimbul 778885120743 MB 0 0 1364800707

10:18

1-Апр-13

Документальные фильмы и телепередачи ·· Американские цыгане: Война сорпеников / American Gypsies: Rivals At War (Эндрю Крисс, Питер Лайпер) [2012, Документальный, реалити, социология, SATRip] Galfimbul 642438780613 MB 0 0 1361759793

05:36

25-Фев-13

Документальные фильмы и телепередачи ·· Американские цыгане: Борьба начинается / American Gypsies: The Gloves Come Off (Эндрю Крисс, Питер Лайпер) [2012, Документальный, реалити, социология, SATRip] Galfimbul 646814426617 MB 0 0 1361759790

05:36

25-Фев-13

Документальные фильмы и телепередачи ·· Американские цыгане: Срочная свадьба / American Gypsies: Urgent wedding (Эндрю Крисс, Питер Лайпер) [2013, Документальный, реалити, социология, SATRip] Galfimbul 730570032697 MB 0 0 1361759771

05:36

25-Фев-13

Документальные фильмы и телепередачи ·· Американские цыгане: Моя большая флоридская свадьба / American Gypsies: My big Florida Wedding [2013, Документальный, реалити, социология, SATRip] Galfimbul 691526422659 MB 0 0 1361759764

05:36

25-Фев-13

Документальные фильмы и телепередачи ·· Американские цыгане: Жертвоприношение / American.Gypsies: Ritual.Slaughter [2012, Документальный, реалити, социология, SATRip] Galfimbul 649111580619 MB 0 0 1361759761

05:36

25-Фев-13

Зарубежные фильмы до 2016 ·· Пой, цыган / Canta Gitano (Тони Гатлиф / Tony Gatlif) [1981, Испания, Драма, фламенко, короткий метр, DVDRip] Sub Rus Galfimbul 127641949122 MB 0 0 1350655020

16:57

19-Окт-12

Российские фильмы до 2016 ·· Мои цыгане (Лейла Горделадзе) [1987, драма, TVRip] Galfimbul 496531974474 MB 0 0 1347384180

20:23

11-Сен-12

Российские фильмы до 2016 ·· Цыган (Александр Бланк) [1979, экранизация, мелодрама, семейное кино, DVB] Galfimbul 100734853129.38 GB 0 0 1341061860

16:11

30-Июн-12

Еще никто не оставлял запись к записи скачать торрент Цыган . Будь первым!

!Обратная связь