Скачать через торрент Семейка не от мира сего бесплатно Аниме Все серии на русском torrent

Если у вас наблюдаются проблемы со скриншотами, переходом по ссылками, скачиванием торрентов - проблемы в блокировщике рекламы AdBlock. #хорошегоДня!


Статистика раздачи
Размер:  7.24 GB   |    Зарегистрирован:  4 месяца 7 дней   |    .torrent скачан:  26 раз   |   
Раздают:  1  
   
Загрузка...
 
Автор Сообщение

Galfimbul

avatar Galfimbul


Год выпуска: 2017
Страна: Япония
Жанр: драма, комедия, повседневность, фэнтези
Продолжительность: TV, 12 эп. по 25 мин.
Режиссер: Ёсихара Масаюки
Студия: P.A. Works
Выпуск: с 09.04.2017 по 25.06.2017Описание:
Представьте альтернативный мир, в котором вполне нормально родиться в семье воронов тенгу или енотов тануки, мифологических существ известной нам Японии.
В городе Киото среди людей живёт экзотичная семья тануки, Шимогамо. Старший сын Яитиро серьёзный и ответственный мужчина, второй сын Ядзиро после смерти отца проводит время в раздумьях в облике лягушки, средний брат Ясабуро – главный герой, увлекающийся превращением в красавицу-школьницу, младший брат Ясиро создаёт электричество. Но объединяет братьев загадочная смерть их отца…
События первого сезона раскрыли тайну смерти отца главного героя и причастность к этому «Пятничного клуба», известного также, как пожиратели мяса тануки. Но зрителей ждёт продолжение истории! Продолжатся приключения Ясабуро и его братьев: они всё так же будут, с одной стороны, налаживать отношения между тенгу, тануки и людьми, а с другой стороны, постараются не попасть на стол «Пятничного клуба»!Информационные ссылки: AniDB || World Art || MALКачество: BDRip
Автор рипа: ReinForce
Тип релиза: Без хардсаба; без линковки
Формат видео: MKV
Видео: MPEG4(х264); 8 bit; 1920x1080; ~6500 Кбит/сек; 23.976 кадра/сек
Аудио: FLAC; 48kHz; 2 канала; ~650 Кбит/сек; язык: японский
Субтитры: ASS; внешние; язык: русский; перевод: YakuSub Studio
Субтитры: переводчик: Nika_Elrik, редактор: Harushechka, оформление: Helge
Субтитры: ретайминг под Blu-Ray: Horodep
01. The Nidaime`s Homecoming
02. The Conjurer Tenmaya
03. The Scent of Europe
04. The Tanuki Shogi Tournament
05. Daimonji Luxury Liner Battle Continued
06. Arima Hell

07. The Friday Club Once More
08. Ebisugawa Kaisei`s Secret
09. The Various Nidaime
10. The Day the Trick Magister Is Chosen
11. The Blood of the Tengu, the Blood of the Fool
12. The Red String of Fate
MERDOK - BDRip, 1080p
GeneralUnique ID : 33347175105660674771507508448541524294 (0x19166EABD8BD78EAE23E42A1FB3FC146)Complete name : \Uchouten Kazoku 2 [BDRip 1080p x264 FLAC]\[ReinForce] Uchouten Kazoku 2 - 01 (BDRip 1920x1080 x264 FLAC).mkvFormat : MatroskaFormat version : Version 4 / Version 2File size : 1.00 GiBDuration : 23 min 40 sOverall bit rate mode : VariableOverall bit rate : 6 060 kb/sEncoded date : UTC 2017-08-02 06:58:36Writing application : mkvmerge v9.6.0 ('Slave To Your Mind') 64bitWriting library : libebml v1.3.4 + libmatroska v1.4.7

VideoID : 1Format : AVCFormat/Info : Advanced Video CodecFormat profile : High@L4Format settings, CABAC : YesFormat settings, ReFrames : 4 framesCodec ID : V_MPEG4/ISO/AVCDuration : 23 min 40 sBit rate : 5 412 kb/sWidth : 1 920 pixelsHeight : 1 080 pixelsDisplay aspect ratio : 16:9Frame rate mode : ConstantFrame rate : 23.976 (24000/1001) FPSColor space : YUVChroma subsampling : 4:2:0Bit depth : 8 bitsScan type : ProgressiveBits/(Pixel*Frame) : 0.109Stream size : 916 MiB (89%)Writing library : x264 core 152Encoding settings : opencl=1 / cabac=1 / ref=4 / deblock=1:-2:-2 / analyse=0x3:0x113 / me=umh / subme=9 / psy=1 / psy_rd=0.70:0.00 / mixed_ref=0 / me_range=32 / chroma_me=1 / trellis=2 / 8x8dct=1 / cqm=0 / deadzone=21,11 / fast_pskip=1 / chroma_qp_offset=-2 / threads=8 / lookahead_threads=1 / sliced_threads=0 / nr=0 / decimate=1 / interlaced=0 / bluray_compat=0 / constrained_intra=0 / bframes=9 / b_pyramid=2 / b_adapt=2 / b_bias=0 / direct=3 / weightb=1 / open_gop=0 / weightp=2 / keyint=250 / keyint_min=23 / scenecut=40 / intra_refresh=0 / rc_lookahead=40 / rc=crf / mbtree=1 / crf=16.0 / qcomp=0.70 / qpmin=10 / qpmax=20 / qpstep=4 / ip_ratio=1.40 / aq=1:1.00Default : YesForced : No

AudioID : 2Format : FLACFormat/Info : Free Lossless Audio CodecCodec ID : A_FLACDuration : 23 min 40 sBit rate mode : VariableBit rate : 647 kb/sChannel(s) : 2 channelsChannel positions : Front: L RSampling rate : 48.0 kHzFrame rate : 10.417 FPS (4608 spf)Bit depth : 16 bitsStream size : 109 MiB (11%)Writing library : Lavf57.71.100Language : JapaneseDefault : YesForced : No
Выбор видео, перевода, осуществляется релизером и не подлежит обсуждению. Если вы считаете, что раздаваемый материал противоречит правилам раздела "Аниме" rutracker.org, сообщите об этом одному из модераторов раздела.
Данный релиз предназначен для просмотра на ПК. Воспроизведение на иных проигрывателях не гарантируется.
Данный релиз предназначен для просмотра с внешними субтитрами. Для просмотра с субтитрами нужно:

установить шрифты из папки "RUS Subs » Fonts";

скопировать файлы .ass из папки "RUS Subs" в одну папку с видео - плеер подгрузит их автоматически при открытии видео.

Если у вас возникли проблемы с просмотром, не связанные с описанным выше, сообщите о них автору раздачи посредством сообщения в теме или ЛС Horodep.


Трекер:  [ 03-Авг-2017 18:30 ]

  

Скачать .torrent

Размер .torrent файла 38 KB


Размер: 7.24 GB
Хэш (hash) релиза: 796e57ae07f214f98c92f82374bf43e55ea1400d
Подписка на обновления:

Торренты, похожие на Семейка не от мира сего скачать торрент

Форум Название Автор Размер S L Добавлен
Аниме | HD Rips ·· Семейка не от мира сего (ТВ-2) / Uchouten Kazoku 2 (Ёсихара Масаюки) [TV] [Без хардсаба] [1 из 11] [JAP+SUB] [2017, драма, комедия, повседневность, фэнтези, HDTVRip] [720p] Galfimbul 350116748334 MB 0 0 1491926639

19:03

11-Апр-17

Аниме | HD Rips ·· Семейка не от мира сего / Uchouten Kazoku / The Eccentric Family [TV] [13 из 13] [Без хардсаба] [RUS(int), JAP, SUB] [2013 г., комедия, фэнтези, HDTVRip] [720p] Polarnik 39873302503.71 GB 0 0 1384893402

23:36

19-Ноя-13

Аниме | HD Rips ·· Семейка не от мира сего / Uchouten Kazoku [TV] [01-10 из 12] [Rus] [2013, приключения, мистика, комедия, HDTV] [720p] Polarnik 30480125192.84 GB 0 0 1378980001

13:00

12-Сен-13

Аниме | HD Rips ·· Семейка не от мира сего / Uchouten Kazoku (Ёсихара Масаюки) [TV] [без хардсаба] [3 из >12] [JAP+SUB] & [2 из >12] [RUS(ext)] [2013 г., повседневность, комедия, HDTVRip] [720p] Polarnik 1022765177975 MB 0 0 1374547571

05:46

23-Июл-13

Аниме | HD Rips ·· Семейка не от мира сего / Uchouten Kazoku (Ёсихара Масаюки) [TV] [1 из >12] [без хардсаба] [RUS(ext), JAP+SUB] [2013 г., повседневность, комедия, HDTVRip] [720p] Polarnik 339595251324 MB 0 0 1373382578

18:09

9-Июл-13

Еще никто не оставлял запись к записи скачать торрент Семейка не от мира сего . Будь первым!

!Обратная связь