Скачать через торрент Атом: Начало Atom: The Beginning бесплатно Аниме Все серии на русском torrent

Если у вас наблюдаются проблемы со скриншотами, переходом по ссылками, скачиванием торрентов - проблемы в блокировщике рекламы AdBlock. #хорошегоДня!


Статистика раздачи
Размер:  4.25 GB   |    Зарегистрирован:  1 месяц 23 дня   |    .torrent скачан:  23 раза   |   
Раздают:  1  
   
Загрузка...
 
Автор Сообщение

Galfimbul

avatar Galfimbul


Год выпуска: 2017
Страна: Япония
Жанр: приключения, фантастика
Продолжительность: TV, 12 эп. по 25 мин.
Режиссер: Сато Тацуо
Студия: Production I.G
Выпуск: с 15.04.2017 по 08.07.2017Описание:
Кто бы что ни говорил, но нашим миром правят гении. Нет, речь идёт не о политике, а об одарённых людях, решивших полностью посвятить себя различным отраслям науки. Именно они на своих плечах двигают прогресс этого мира и воплощают в реальность самые смелые мечты человечества. Но никто не может узнать наверняка, к чему приведёт то или иное открытие, послужит оно добру или же злу.

История этого аниме повествует нам о двух гениальных учёных, живущих в Японии, претерпевшей пять лет назад огромную катастрофу и в данный момент постепенно возвращающейся к привычной жизни. Уматаро Тэнма и Хироши Очаномизу учатся в университете Нэрима на факультете изучения роботостроения. Они друзья, и оба искренне считают, что будущее этого мира за роботами. Правда в одном их мечты расходятся, ведь амбициозный Тэнма желает создать робота-бога, а Очаномизу достаточно друга. Результатом их творения стал робот А-106, но кем же он будет в итоге, богом или другом, нам ещё предстоит узнать. Данное аниме является приквелом к культовому аниме Астробой.© animevost.Информационные ссылки: AniDB || World Art || MALКачество: HDTVRip
Автор рипа: Leopard-Raws
Тип релиза: Без хардсаба; без линковки
Формат видео: MP4
Видео: MPEG4(х264); 8 bit; 1280x720; ~1800 Кбит/сек; 23.976 кадра/сек
Аудио: AAC; 48kHz; 2 канала; ~192 Кбит/сек; язык: японский
Субтитры: ASS; внешние; язык: русский; перевод: AniPlay
Субтитры: перевод и редактура: Nina_Latina
01. Рождение могущественного Атома
02. Осознание
03. Преследования
04. Добро пожаловать на фестиваль в Нэриме
05. Транспорт Марухигэ
06. Уничтожение Лаборатории-7!
07. Ран и принцесса Тэру
08. Борьба роботов
09. Шестой неспособен сражаться
10. Королевская битва
11. Диалог
12. Начало
GeneralComplete name : \Atom - The Beginning [HDTVRip 720p x264 AAC]\[Leopard-Raws] Atom - The Beginning - 01 RAW (NHKG 1280x720 x264 AAC).mp4Format : MPEG-4Format profile : Base MediaCodec ID : isom (isom/avc1/iso6)File size : 372 MiBDuration : 24 min 59 sOverall bit rate mode : VariableOverall bit rate : 2 081 kb/sEncoded date : UTC 2017-04-16 08:13:24Tagged date : UTC 2017-04-16 08:13:24

VideoID : 1Format : AVCFormat/Info : Advanced Video CodecFormat profile : High@L4.1Format settings, CABAC : YesFormat settings, ReFrames : 4 framesCodec ID : avc1Codec ID/Info : Advanced Video CodingDuration : 24 min 59 sBit rate : 1 886 kb/sMaximum bit rate : 14.4 Mb/sWidth : 1 280 pixelsHeight : 720 pixelsDisplay aspect ratio : 16:9Frame rate mode : ConstantFrame rate : 23.976 (24000/1001) FPSColor space : YUVChroma subsampling : 4:2:0Bit depth : 8 bitsScan type : ProgressiveBits/(Pixel*Frame) : 0.085Stream size : 337 MiB (91%)Title : 264:fps=23.976@GPAC0.5.2-DEV-rev376-g5eeb74d-masterWriting library : x264 core 129 r2245+729M 1a52e03Encoding settings : cabac=1 / ref=4 / deblock=1:1:-1 / analyse=0x3:0x113 / me=umh / subme=9 / psy=1 / fade_compensate=0.00 / psy_rd=1.00:0.00 / mixed_ref=1 / me_range=24 / chroma_me=1 / trellis=2 / 8x8dct=1 / cqm=0 / deadzone=21,11 / fast_pskip=1 / chroma_qp_offset=-2 / threads=8 / lookahead_threads=1 / sliced_threads=0 / nr=0 / decimate=1 / interlaced=0 / bluray_compat=0 / constrained_intra=0 / fgo=0 / bframes=9 / b_pyramid=2 / b_adapt=2 / b_bias=0 / direct=1 / weightb=1 / open_gop=0 / weightp=2 / keyint=240 / keyint_min=24 / scenecut=40 / intra_refresh=0 / rc=crf / mbtree=0 / crf=18.5 / qcomp=0.72 / qpmin=0 / qpmax=69 / qpstep=4 / ip_ratio=1.40 / pb_ratio=1.30 / aq=1:0.85Encoded date : UTC 2017-04-16 08:13:24Tagged date : UTC 2017-04-16 08:13:39Color range : LimitedColor primaries : BT.709Transfer characteristics : BT.709Matrix coefficients : BT.709

AudioID : 2Format : AACFormat/Info : Advanced Audio CodecFormat profile : LCCodec ID : 40Duration : 24 min 59 sBit rate mode : VariableBit rate : 192 kb/sMaximum bit rate : 231 kb/sChannel(s) : 2 channelsChannel positions : Front: L RSampling rate : 48.0 kHzFrame rate : 46.875 FPS (1024 spf)Compression mode : LossyStream size : 34.3 MiB (9%)Language : JapaneseEncoded date : UTC 2017-04-15 19:55:17Tagged date : UTC 2017-04-16 08:13:39
Выбор видео, перевода, осуществляется релизером и не подлежит обсуждению. Если вы считаете, что раздаваемый материал противоречит правилам раздела "Аниме" rutracker.org, сообщите об этом одному из модераторов раздела.
Данный релиз предназначен для просмотра на ПК. Воспроизведение на иных проигрывателях не гарантируется.
Данный релиз предназначен для просмотра с внешними субтитрами. Для просмотра с субтитрами нужно:

установить шрифты из папки "RUS Subs » Fonts";

скопировать файлы .ass из папки "RUS Subs" в одну папку с видео - плеер подгрузит их автоматически при открытии видео.

Если у вас возникли проблемы с просмотром, не связанные с описанным выше, сообщите о них автору раздачи посредством сообщения в теме или ЛС Horodep.


Трекер:  [ 01-Авг-2017 17:01 ]

  

Скачать .torrent

Размер .torrent файла 24 KB


Размер: 4.25 GB
Хэш (hash) релиза: 44f77cd79b076c63d7f28f93e1e954d0ba22a93d
Подписка на обновления:

Торренты, похожие на Атом: Начало Atom: The Beginning скачать торрент

Форум Название Автор Размер S L Добавлен
Аниме | HD Rips ·· Атом: Начало / Atom: The Beginning (Сато Тацуо) [TV] [1 из 12] [Без хардсаба] [JAP+SUB] [2017, Меха, сёнен, фантастика, экшен HDTVRip] [720p] Galfimbul 643146231613 MB 0 0 1492543856

22:30

18-Апр-17

Еще никто не оставлял запись к записи скачать торрент Атом: Начало Atom: The Beginning . Будь первым!

!Обратная связь