Скачать через торрент Маленький Зоомагазин Littlest Pet Shop Фильм бесплатно в хорошем качестве torrent

Скачивайте на UnionPeer.org фильмы через торрент без регистрации. Новинки кино в хорошем качестве через торрент. На UnionPeer.org можно скачать через торрент фильмы 2014 и 2015 годов. Самые новые фильмы.

Скачать торрент Маленький Зоомагазин Littlest Pet Shop бесплатно через .torrent фильм мультфильм сериал

Если у вас наблюдаются проблемы со скриншотами, переходом по ссылками, скачиванием торрентов - проблемы в блокировщике рекламы AdBlock. #хорошегоДня!


Статистика раздачи
Размер:  22.19 GB   |    Зарегистрирован:  22 дня   |    .torrent скачан:  39 раз   |   
Раздают:  1  
   
Загрузка...
 
Автор Сообщение

Galfimbul

avatar Galfimbul


Маленький Зоомагазин / Littlest Pet Shop

Страна: США, Канада
Жанр: Приключения, фэнтези, комедия
Продолжительность серии: 22:02-22:04
Год выпуска: 2015
Перевод: Профессиональный (дублированный)
Перевод 2: Профессиональный (дублированный)
Русские субтитры: нет

Режиссёр: Даллас Паркер, Джоэль Дикл
Роли озвучивали: Елена Чебатуркина, Ольга Голованова, Ольга Шорохова, Дарья Фролова, Евгений Вальц, Денис Некрасов.

Описание: Когда Роджер Бакстер, отец девочки по имени Блайс, получает повышение, дочь вынуждена переехать вместе с ним из пригорода в квартиру в переполненном городе. Квартира находится над зоомагазином, в котором, кроме самого магазина, работают дневной лагерь для домашних питомцев. Приключения начинаются, когда девочка обнаруживает, что может разговаривать с животными.

Качество: WEB-DL
Формат: MKV
Видео: x264 8bit 1920x1080 23.976fps ~5500Kbps
Аудио: English: AC-3, 48.0 kHz, 5.1, 384 kb/s Original
Аудио 2: Russian: AC-3, 48.0 kHz, Stereo, 192 kb/s СВ-Дубль по заказу ВГТРК (Карусель)
Аудио 3: Ukrainian: AC-3, 48.0 kHz, Stereo, 192 kb/s ПлюсПлюс
Субтитры: English Colorful by CaIIIeHЬKA
D:\Torrent\Littlest Pet Shop\Season 3\1. Sleeper.mkv General Unique ID : 204310007918613621773097743625868060433 (0x99B4AD1CADA0C01F969386730300A711) Complete name : D:\Torrent\Littlest Pet Shop\Season 3\1. Sleeper.mkv Format : Matroska Format version : Version 4 / Version 2 File size : 890 MiB Duration : 22 min 3 s Overall bit rate : 5 642 kb/s Writing application : mkvmerge v12.0.0 ('Trust / Lust') 64bit Writing library : libebml v1.3.4 + libmatroska v1.4.5 Video #1 ID : 1 Format : AVC Format/Info : Advanced Video Codec Format profile : High@L4 Format settings, CABAC : Yes Format settings, ReFrames : 4 frames Codec ID : V_MPEG4/ISO/AVC Duration : 22 min 3 s Bit rate : 4 762 kb/s Width : 1 920 pixels Height : 1 080 pixels Display aspect ratio : 16:9 Frame rate mode : Constant Frame rate : 23.976 FPS Color space : YUV Chroma subsampling : 4:2:0 Bit depth : 8 bits Scan type : Progressive Bits/(Pixel*Frame) : 0.096 Stream size : 751 MiB (84%) Language : English Default : Yes Forced : No Color range : Limited Color primaries : BT.709 Transfer characteristics : BT.709 Matrix coefficients : BT.709 Audio #2 ID : 2 Format : AC-3 Format/Info : Audio Coding 3 Mode extension : CM (complete main) Format settings, Endianness : Big Codec ID : A_AC3 Duration : 22 min 3 s Bit rate mode : Constant Bit rate : 384 kb/s Channel(s) : 6 channels Channel positions : Front: L C R, Side: L R, LFE Sampling rate : 48.0 kHz Frame rate : 31.250 FPS (1536 spf) Compression mode : Lossy Stream size : 60.6 MiB (7%) Title : Original Language : English Default : Yes Forced : No Audio #3 ID : 3 Format : AC-3 Format/Info : Audio Coding 3 Mode extension : CM (complete main) Format settings, Endianness : Big Codec ID : A_AC3 Duration : 22 min 3 s Bit rate mode : Constant Bit rate : 192 kb/s Channel(s) : 2 channels Channel positions : Front: L R Sampling rate : 48.0 kHz Frame rate : 31.250 FPS (1536 spf) Compression mode : Lossy Stream size : 30.3 MiB (3%) Title : СВ-Дубль по заказу ВГТРК (Карусель) Language : Russian Default : No Forced : No Audio #4 ID : 4 Format : AC-3 Format/Info : Audio Coding 3 Mode extension : CM (complete main) Format settings, Endianness : Big Codec ID : A_AC3 Duration : 22 min 3 s Bit rate mode : Constant Bit rate : 192 kb/s Channel(s) : 2 channels Channel positions : Front: L R Sampling rate : 48.0 kHz Frame rate : 31.250 FPS (1536 spf) Compression mode : Lossy Stream size : 30.3 MiB (3%) Title : ПлюсПлюс Language : Ukrainian Default : No Forced : No Text #5 ID : 5 Format : ASS Codec ID : S_TEXT/ASS Codec ID/Info : Advanced Sub Station Alpha Compression mode : Lossless Title : Original Language : English Default : Yes Forced : No


Трекер:  [ 31-Июл-2017 23:54 ]

  

Скачать .torrent

Размер .torrent файла 57 KB


Размер: 22.19 GB
Хэш (hash) релиза: 53adf383d67ce57910ca916b17964487ce838023
Подписка на обновления:

Еще никто не оставлял запись к записи скачать торрент Маленький Зоомагазин Littlest Pet Shop . Будь первым!

!Обратная связь