Скачать через торрент Рик и Морти Rick and Morty Фильм бесплатно в хорошем качестве torrent

Скачивайте на UnionPeer.org фильмы через торрент без регистрации. Новинки кино в хорошем качестве через торрент. На UnionPeer.org можно скачать через торрент фильмы 2014 и 2015 годов. Самые новые фильмы.

Скачать торрент Рик и Морти Rick and Morty бесплатно через .torrent фильм мультфильм сериал

Если у вас наблюдаются проблемы со скриншотами, переходом по ссылками, скачиванием торрентов - проблемы в блокировщике рекламы AdBlock. #хорошегоДня!


Статистика раздачи
Размер:  975 MB   |    Зарегистрирован:  2 месяца 17 дней   |    .torrent скачан:  73 раза   |   
Раздают:  1  
   
Загрузка...
 
Автор Сообщение

Galfimbul

avatar Galfimbul


Рик и Морти / Rick and Morty

Страна: США
Жанр: комедия, фантастика
Продолжительность серии: ~ 22 мин.
Год выпуска: 2017
Перевод: Субтитры
Русские субтитры: есть

Режиссёр: Пит Мишелс, Брайан Ньютон, Джон Райс
Роли озвучивали: Джастин Ройланд, Крис Парнелл, Спенсер Грэммер, Сара Чок, Кари Уолгрен, Райан Ридли, Том Кенни, Морис ЛаМарш, Фил Хендри, Брэндон Джонсон и др.

Описание: В центре сюжета обычный школьник по имени Морти и его не совсем вменяемый дедушка Рик, который очень любит выпить. Морти — самый обычный мальчик, и ничем не отличается от своих сверстников. А вот его дедуля занимается необычными научными исследованиями, и зачастую полностью неадекватен. Он может в любое время дня и ночи схватить внука и отправиться вместе с ним в межпространственные приключения с помощью построенной из разного хлама летающей тарелки, которая способна перемещаться сквозь временной туннель. Каждый раз эта парочка оказывается в самых неожиданных местах, из-за чего очень часто дед и внук оказываются в нелепых и непредвиденных ситуациях. Родители мальчика далеко не в восторге от выходок Рика, и пытаются доказать ему, что он поступает неправильно. Однако несмотря ни на что, Морти и пожилой ученый каждый раз отправляются в очередное путешествие, где их ждут новые невероятные приключения…

Список серий:
1. "The Rickshank Rickdemption".
2. "Rickmancing the Stone".

Ссылка на предыдущие и альтернативные раздачи: ...Rick%20and%20Morty
Семпл: http://sendfile.su/1352276

Качество: HDTVRip
Формат: MKV
Видео: AVC, 1280x720, 16:9, 23.976 fps, 2717 kbps
Аудио: AС-3, 48 kHz, 6 ch, 448 kbps
Субтитры: softsub (SRT), русские
VideoID : 1Format : AVCFormat/Info : Advanced Video CodecFormat profile : High@L4.1Format settings, CABAC : YesFormat settings, ReFrames : 9 framesCodec ID : V_MPEG4/ISO/AVCDuration : 22mn 46sBit rate : 2 717 KbpsWidth : 1 280 pixelsHeight : 720 pixelsDisplay aspect ratio : 16:9Frame rate mode : ConstantFrame rate : 23.976 (24000/1001) fpsColor space : YUVChroma subsampling : 4:2:0Bit depth : 8 bitsScan type : ProgressiveBits/(Pixel*Frame) : 0.123Stream size : 443 MiB (86%)Writing library : x264 core 148 r2762 90a61ecEncoding settings : cabac=1 / ref=9 / deblock=1:1:1 / analyse=0x3:0x113 / me=hex / subme=8 / psy=1 / psy_rd=0.40:0.00 / mixed_ref=1 / me_range=16 / chroma_me=1 / trellis=2 / 8x8dct=1 / cqm=0 / deadzone=21,11 / fast_pskip=1 / chroma_qp_offset=-2 / threads=12 / lookahead_threads=2 / sliced_threads=0 / nr=0 / decimate=1 / interlaced=0 / bluray_compat=0 / constrained_intra=0 / bframes=5 / b_pyramid=2 / b_adapt=1 / b_bias=0 / direct=3 / weightb=1 / open_gop=0 / weightp=2 / keyint=250 / keyint_min=23 / scenecut=40 / intra_refresh=0 / rc_lookahead=50 / rc=crf / mbtree=1 / crf=18.0 / qcomp=0.60 / qpmin=0 / qpmax=69 / qpstep=4 / ip_ratio=1.40 / aq=1:0.60Default : YesForced : No

AudioID : 2Format : AC-3Format/Info : Audio Coding 3Mode extension : CM (complete main)Format settings, Endianness : BigCodec ID : A_AC3Duration : 22mn 46sBit rate mode : ConstantBit rate : 448 KbpsChannel(s) : 6 channelsChannel positions : Front: L C R, Side: L R, LFESampling rate : 48.0 KHzFrame rate : 31.250 fps (1536 spf)Compression mode : LossyStream size : 73.0 MiB (14%)Language : EnglishDefault : YesForced : No


Трекер:  [ 31-Июл-2017 11:54 ]

  

Скачать .torrent

Размер .torrent файла 19 KB


Размер: 975 MB
Хэш (hash) релиза: e673c4cd3272a823da31327fd873afb337ac905d
Подписка на обновления:

Торренты, похожие на Рик и Морти Rick and Morty скачать торрент

Форум Название Автор Размер S L Добавлен
Мультсериалы ·· Рик и Морти / Rick and Morty / Сезон: 3 / Серии: 1-2 из 10 (Пит Мишелс, Брайан Ньютон, Джон Райс) [2017, США, комедия, фантастика, SATRip] VO Galfimbul 197592693188 MB 0 0 1501532982

23:29

31-Июл-17

Еще никто не оставлял запись к записи скачать торрент Рик и Морти Rick and Morty . Будь первым!

!Обратная связь