Charles Gounod - Romeo et Juliette torrent

, , - AdBlock. #!


43.04 GB   |    :  6 1    |    .torrent :  174    |   
1  
   
...
 

L


: " " / Charles Gounod: Romeo et Juliette

: 2008
:
: 02 . 41 . 57 .
:
: / Bartlett Sher
: Salzburg Mozarteum Orchestra
: Yannick Nezet-Seguin
: Nino Machaidze (Juliette), Rolando Villazon (Romeo), Mikhail Petrenko (Frere Laurent), Russell Braun (Mercutio), Cora Burggraaf (Stephano), Falk Struckmann (Le Comte Capulet), Juan Francisco Gatell (Tybalt), Susanne Resmark (Gertrude), Christian Van Horn (Le Duc de Verone), Mathias Hausmann (Le Comte Paris), Jean-Luc Ballestra (Gregorio), Robert Murray (Benvolio)
: , (), (), (), , (), , (-), , (), , (), , (), , (), , (), , (), , ().
: Blu-Ray (BD-50 Dual-Layer Disc)
: BDMV
: MPEG-4 AVC Video / 26499 kbps / 1920x1080i / 29,970 fps / 16:9 / High Profile 4.1
#1:DTS-HD Master Audio 5.0 (48 kHz / 3995 kbps / 24-bit) ((DTS Core: 5.0 / 48 kHz / 1509 kbps / 24-bit)
#2:LPCM 2.0 (48 kHz / 2304 kbps / 24-bit)
: , , , ,
: Salzburg, Grosses Festspielhaus, 27 & 30 July, 2 August 2008

[b] 5 ; . . .



2008

( )
1867 Charles Gounod (1818-1893) Romeo et Juliette. , , scene from Gounod's Romeo et Juliette. Washington Opera. 1997 - . . , , . , " " "". " " - , . , , , . " " . (Thearte Lyrique) . . - , - . , 1870 , - , ( 1872 : - - Leonid Sobinov as Romeo in the opera of Gounod. Russia. 1919 - ). (1835-1907) - , . , . 16 1919 . - . . : - , , , , , ; - , , , , , . " ", , , , - - " " .

(Emi,1968) (Franco Corelli and Mirella Freni as Romeo and Juliette), Opera di Parigi, - Alain Lombard. 1976 Arena di Verona Giangranco De Bosio (Romeo - Veriano Lucchetti, Juliete - Jeannette Pilou). "" 1994 Covent Garden, Royal Opera House (London), Theatre du Capitole (Toulouse) and Opera Comique (Paris). - Charles Mackerras, - - Nocolas Joel, : Romeo - Roberto Alagna, Juliette - Leontina Vaduva. , 1997 Washington Opera. - - Gianfranco Del Monaco, - Marika Carniti Bollea, : Juliette - Elisabeth Futral, Romeo - Marcello Giordani, Lorenzo - Franco de Grandis. DVD " " (Czech Philarmonic Chamber Orchestra, conductor - Anton Guadagno, Romeo - Roberto Alagna, Juliette - Angela Gheorghiu), (Iambic Production Ltd. 2002).
XIV .

.
, - , . , , , , .

.
. - . . , , , , . , , . . , , , . , . , , ; , . , , . . , , , . , , , , , , . , " ". , . , , , . , , , , . , . , , , . , . . , , , " ". , , , .

.
. . , . . , . . , . . , , , . , . , , , . , , , . .

, . , , , . , .

. .
. . , : " ?" , . , . , . , , , : " , !" , , .

.
. . , , . , , , , , , , , , . . , . . . , , - - , . , , . , . . , , . . , , , , . , , . , , , . , , . , , . , . , , . - , . . . . , . , . , , , , . , , , .

.
. . . , . , . . . , , , , , . . , , . ; . , . , . , , . . , , , . , " , ". , , . : , , . , .

.
. . , . , , . , , , . , . , . , : " ?" , , , , , , , . . . . , , , , . - . , , .
Disc Title:
Disc Size: 46210929237 bytes
Protection: AACS
BD-Java: No
BDInfo: 0.5.3

Notes:

BDINFO HOME:
Cinema Squid
http://www.cinemasquid.com/blu-ray/tools/bdinfo

INCLUDES FORUMS REPORT FOR:
AVS Forum Blu-ray Audio and Video Specifications Thread
http://www.avsforum.com/avs-vb/showthread.php?t=1155731

********************
PLAYLIST: 00001.MPLS
********************

<--- BEGIN FORUMS PASTE --->

:

Total Video
Title Codec Length Movie Size Disc Size Bitrate Bitrate Main Audio Track Secondary Audio Track
----- ------ ------- -------------- -------------- ------- ------- ------------------ ---------------------
00001.MPLS AVC 2:41:57 42147612672 46210929237 34,70 26,50 DTS-HD Master 5.0 3995Kbps (48kHz/24-bit) LPCM 2.0 2304Kbps (48kHz/24-bit)
[code]DISC INFO:

Disc Title:
Disc Size: 46210929237 bytes
Protection: AACS
BD-Java: No
BDInfo: 0.5.3

PLAYLIST REPORT:

Name: 00001.MPLS
Length: 2:41:57 (h:m:s)
Size: 42147612672 bytes
Total Bitrate: 34,70 Mbps

VIDEO:

Codec Bitrate Description
----- ------- -----------
MPEG-4 AVC Video 26499 kbps 1080i / 29,970 fps / 16:9 / High Profile 4.1

AUDIO:

Codec Language Bitrate Description
----- -------- ------- -----------
DTS-HD Master Audio French 3995 kbps 5.0 / 48 kHz / 3995 kbps / 24-bit (DTS Core: 5.0 / 48 kHz / 1509 kbps / 24-bit)
LPCM Audio French 2304 kbps 2.0 / 48 kHz / 2304 kbps / 24-bit

SUBTITLES:

Codec Language Bitrate Description
----- -------- ------- -----------
Presentation Graphics English 13,740 kbps
Presentation Graphics Chinese 13,465 kbps
Presentation Graphics French 14,156 kbps
Presentation Graphics German 14,655 kbps
Presentation Graphics Spanish 14,965 kbps

FILES:

Name Time In Length Size Total Bitrate
---- ------- ------ ---- -------------
00002.M2TS 0:00:00.000 2:41:57.941 42147612672 34697

CHAPTERS:

Number Time In Length Avg Video Rate Max 1-Sec Rate Max 1-Sec Time Max 5-Sec Rate Max 5-Sec Time Max 10Sec Rate Max 10Sec Time Avg Frame Size Max Frame Size Max Frame Time
------ ------- ------ -------------- -------------- -------------- -------------- -------------- -------------- -------------- -------------- -------------- --------------
1 0:00:00.000 0:01:20.447 25638 kbps 32307 kbps 00:01:07.867 29726 kbps 00:01:13.606 28841 kbps 00:01:07.233 106887 bytes 283412 bytes 00:01:20.447
2 0:01:20.447 0:06:39.599 24487 kbps 34807 kbps 00:05:19.819 32386 kbps 00:05:18.117 31065 kbps 00:05:18.951 102133 bytes 294699 bytes 00:01:21.247
3 0:08:00.046 0:05:59.025 29709 kbps 42192 kbps 00:13:34.213 37537 kbps 00:08:10.756 35965 kbps 00:08:07.954 123909 bytes 304875 bytes 00:10:31.230
4 0:13:59.071 0:04:37.010 29370 kbps 38990 kbps 00:14:45.684 35592 kbps 00:17:10.329 34373 kbps 00:14:39.078 122499 bytes 315382 bytes 00:16:36.228
5 0:18:36.081 0:01:14.574 27028 kbps 34982 kbps 00:19:21.693 32708 kbps 00:19:20.125 31117 kbps 00:19:16.321 112730 bytes 279135 bytes 00:19:17.890
6 0:19:50.656 0:02:43.463 26390 kbps 35198 kbps 00:22:07.859 31566 kbps 00:22:05.624 29653 kbps 00:22:17.436 110067 bytes 287033 bytes 00:22:30.816
7 0:22:34.119 0:03:39.085 27380 kbps 39858 kbps 00:24:40.679 33818 kbps 00:25:20.185 32417 kbps 00:24:50.155 114196 bytes 285423 bytes 00:24:57.596
8 0:26:13.204 0:04:05.912 27142 kbps 37937 kbps 00:27:36.154 33246 kbps 00:26:58.183 32168 kbps 00:26:53.678 113203 bytes 293423 bytes 00:28:09.054
9 0:30:19.117 0:00:30.797 29383 kbps 36027 kbps 00:30:38.837 31891 kbps 00:30:35.900 30673 kbps 00:30:31.696 122554 bytes 291964 bytes 00:30:44.576
10 0:30:49.914 0:04:22.829 26477 kbps 34782 kbps 00:33:04.415 31547 kbps 00:33:02.780 29874 kbps 00:33:02.113 110430 bytes 293670 bytes 00:33:09.387
11 0:35:12.743 0:05:24.991 27912 kbps 41306 kbps 00:39:42.713 37458 kbps 00:39:41.479 35649 kbps 00:39:41.278 116417 bytes 306226 bytes 00:39:53.924
12 0:40:37.735 0:03:45.358 25253 kbps 30876 kbps 00:43:59.370 29400 kbps 00:43:57.101 28489 kbps 00:43:55.499 105326 bytes 294956 bytes 00:41:16.173
13 0:44:23.093 0:04:51.791 24929 kbps 31788 kbps 00:46:40.631 28019 kbps 00:48:02.479 27532 kbps 00:48:02.946 103976 bytes 264495 bytes 00:44:51.922
14 0:49:14.885 0:04:59.599 24733 kbps 32345 kbps 00:51:01.224 28542 kbps 00:53:36.279 28059 kbps 00:53:36.112 103158 bytes 290146 bytes 00:53:50.860
15 0:54:14.484 0:03:29.442 28284 kbps 35395 kbps 00:56:22.846 33004 kbps 00:56:22.145 31661 kbps 00:54:23.059 117968 bytes 288561 bytes 00:56:05.929
16 0:57:43.927 0:03:46.859 26932 kbps 37297 kbps 01:00:02.899 31730 kbps 01:00:01.965 30465 kbps 00:59:57.961 112331 bytes 302487 bytes 01:00:40.570
17 1:01:30.787 0:04:58.197 26291 kbps 33742 kbps 01:03:28.671 31980 kbps 01:03:27.103 30053 kbps 01:03:26.435 109654 bytes 300851 bytes 01:02:54.437
18 1:06:28.985 0:05:27.827 26219 kbps 38260 kbps 01:10:08.938 33631 kbps 01:10:08.137 31574 kbps 01:10:06.035 109354 bytes 282387 bytes 01:09:34.370
19 1:11:56.812 0:06:54.647 24351 kbps 40736 kbps 01:17:36.652 32345 kbps 01:17:35.017 30906 kbps 01:17:30.412 101562 bytes 294151 bytes 01:18:48.724
20 1:18:51.460 0:04:27.000 26799 kbps 35463 kbps 01:19:02.170 33553 kbps 01:18:59.034 30863 kbps 01:20:15.510 111773 bytes 303545 bytes 01:19:03.071
21 1:23:18.460 0:03:42.689 29462 kbps 42356 kbps 01:25:04.566 37772 kbps 01:25:03.698 35535 kbps 01:25:01.963 122883 bytes 292378 bytes 01:25:42.804
22 1:27:01.149 0:07:35.154 28221 kbps 42051 kbps 01:28:37.512 37559 kbps 01:28:48.589 35883 kbps 01:28:44.285 117705 bytes 293954 bytes 01:31:54.442
23 1:34:36.303 0:06:58.851 26094 kbps 46187 kbps 01:35:09.170 35616 kbps 01:35:07.902 33439 kbps 01:35:03.097 108834 bytes 285566 bytes 01:35:24.752
24 1:41:35.155 0:06:16.376 25284 kbps 33945 kbps 01:42:27.074 31068 kbps 01:42:27.074 29990 kbps 01:42:26.607 105456 bytes 280859 bytes 01:44:51.385
25 1:47:51.531 0:07:03.623 25954 kbps 37699 kbps 01:50:04.297 30884 kbps 01:50:03.930 30608 kbps 01:49:55.755 108249 bytes 278286 bytes 01:54:17.851
26 1:54:55.154 0:05:12.045 26908 kbps 40187 kbps 01:58:26.299 33049 kbps 01:58:22.328 31629 kbps 01:58:18.124 112230 bytes 288662 bytes 01:58:15.288
27 2:00:07.200 0:05:53.953 26347 kbps 39502 kbps 02:00:47.306 32778 kbps 02:00:45.538 30601 kbps 02:05:45.170 109890 bytes 280704 bytes 02:04:38.571
28 2:06:01.153 0:06:11.704 26340 kbps 37023 kbps 02:07:41.387 32945 kbps 02:09:18.984 32340 kbps 02:09:14.880 109861 bytes 295161 bytes 02:09:27.092
29 2:12:12.858 0:04:25.598 26340 kbps 38600 kbps 02:15:33.024 36053 kbps 02:15:32.090 35056 kbps 02:15:28.687 109859 bytes 287286 bytes 02:16:20.605
30 2:16:38.456 0:02:35.088 25831 kbps 32554 kbps 02:19:00.165 31057 kbps 02:19:00.165 30319 kbps 02:18:55.827 107736 bytes 289606 bytes 02:19:07.405
31 2:19:13.545 0:05:55.888 26169 kbps 34355 kbps 02:23:18.523 31794 kbps 02:19:23.922 30705 kbps 02:19:19.918 109148 bytes 289580 bytes 02:21:55.306
32 2:25:09.434 0:04:15.722 26777 kbps 35684 kbps 02:28:10.615 33750 kbps 02:28:09.714 32711 kbps 02:28:05.476 111683 bytes 295017 bytes 02:27:01.779
33 2:29:25.156 0:12:32.785 25654 kbps 44335 kbps 02:37:06.316 35576 kbps 02:39:41.371 34363 kbps 02:39:38.168 107005 bytes 303001 bytes 02:39:07.871

STREAM DIAGNOSTICS:

File PID Type Codec Language Seconds Bitrate Bytes Packets
---- --- ---- ----- -------- -------------- -------------- ------------- -----
00002.M2TS 4113 (0x1011) 0x1B AVC 9717,808 26500 32189680977 175259300
00002.M2TS 4352 (0x1100) 0x86 DTS-HD MA fra (French) 9717,808 3995 4852462260 27885580
00002.M2TS 4353 (0x1101) 0x80 LPCM fra (French) 9717,808 2310 2806551180 15548760
00002.M2TS 4608 (0x1200) 0x90 PGS fra (French) 9717,808 14 17195458 99648
00002.M2TS 4609 (0x1201) 0x90 PGS eng (English) 9717,808 14 16690073 96904
00002.M2TS 4610 (0x1202) 0x90 PGS deu (German) 9717,808 15 17801854 102936
00002.M2TS 4611 (0x1203) 0x90 PGS spa (Spanish) 9717,808 15 18179175 105000
00002.M2TS 4612 (0x1204) 0x90 PGS zho (Chinese) 9717,808 13 16355920 95090[/code]
<---- END FORUMS PASTE ---->

QUICK SUMMARY:

Disc Title:
Disc Size: 46210929237 bytes
Protection: AACS
BD-Java: No
Playlist: 00001.MPLS
Size: 42147612672 bytes
Length: 2:41:57
Total Bitrate: 34,70 Mbps
Video: MPEG-4 AVC Video / 26499 kbps / 1080i / 29,970 fps / 16:9 / High Profile 4.1
Audio: French / DTS-HD Master Audio / 5.0 / 48 kHz / 3995 kbps / 24-bit (DTS Core: 5.0 / 48 kHz / 1509 kbps / 24-bit)
Audio: French / LPCM Audio / 2.0 / 48 kHz / 2304 kbps / 24-bit
Subtitle: English / 13,740 kbps
Subtitle: Chinese / 13,465 kbps
Subtitle: French / 14,156 kbps
Subtitle: German / 14,655 kbps
Subtitle: Spanish / 14,965 kbps

********************
PLAYLIST: 00002.MPLS
********************

<--- BEGIN FORUMS PASTE --->
[code]Total Video
Title Codec Length Movie Size Disc Size Bitrate Bitrate Main Audio Track Secondary Audio Track
----- ------ ------- -------------- -------------- ------- ------- ------------------ ---------------------
00002.MPLS AVC 0:07:42 1740220416 46210929237 30,08 24,98 LPCM 2.0 1536Kbps (48kHz/16-bit) LPCM 2.0 1536Kbps (48kHz/16-bit)[/code]
[code]DISC INFO:

Disc Title:
Disc Size: 46210929237 bytes
Protection: AACS
BD-Java: No
BDInfo: 0.5.3

PLAYLIST REPORT:

Name: 00002.MPLS
Length: 0:07:42 (h:m:s)
Size: 1740220416 bytes
Total Bitrate: 30,08 Mbps

VIDEO:

Codec Bitrate Description
----- ------- -----------
MPEG-4 AVC Video 24983 kbps 1080i / 29,970 fps / 16:9 / High Profile 4.1

AUDIO:

Codec Language Bitrate Description
----- -------- ------- -----------
LPCM Audio German 1536 kbps 2.0 / 48 kHz / 1536 kbps / 16-bit
LPCM Audio German 1536 kbps 2.0 / 48 kHz / 1536 kbps / 16-bit

SUBTITLES:

Codec Language Bitrate Description
----- -------- ------- -----------
Presentation Graphics English 50,924 kbps
Presentation Graphics Chinese 38,335 kbps
Presentation Graphics French 54,594 kbps
Presentation Graphics German 0,010 kbps
Presentation Graphics Spanish 54,990 kbps

FILES:

Name Time In Length Size Total Bitrate
---- ------- ------ ---- -------------
00003.M2TS 0:00:00.000 0:07:42.895 1740220416 30075

CHAPTERS:

Number Time In Length Avg Video Rate Max 1-Sec Rate Max 1-Sec Time Max 5-Sec Rate Max 5-Sec Time Max 10Sec Rate Max 10Sec Time Avg Frame Size Max Frame Size Max Frame Time
------ ------- ------ -------------- -------------- -------------- -------------- -------------- -------------- -------------- -------------- -------------- --------------
1 0:00:00.000 0:07:42.895 24983 kbps 38407 kbps 00:00:07.474 35525 kbps 00:04:09.616 33774 kbps 00:05:48.381 104201 bytes 336738 bytes 00:04:13.586

STREAM DIAGNOSTICS:

File PID Type Codec Language Seconds Bitrate Bytes Packets
---- --- ---- ----- -------- -------------- -------------- ------------- -----
00003.M2TS 4113 (0x1011) 0x1B AVC 462,796 24989 1445580624 7871706
00003.M2TS 4352 (0x1100) 0x80 LPCM deu (German) 462,796 1543 89247120 555480
00003.M2TS 4353 (0x1101) 0x80 LPCM deu (German) 462,796 1543 89247120 555480
00003.M2TS 4608 (0x1200) 0x90 PGS fra (French) 462,796 55 3158925 17899
00003.M2TS 4609 (0x1201) 0x90 PGS eng (English) 462,796 51 2946548 16748
00003.M2TS 4610 (0x1202) 0x90 PGS deu (German) 462,796 0 597 10
00003.M2TS 4611 (0x1203) 0x90 PGS spa (Spanish) 462,796 55 3181843 18026
00003.M2TS 4612 (0x1204) 0x90 PGS zho (Chinese) 462,796 38 2218140 12787[/code]
<---- END FORUMS PASTE ---->

QUICK SUMMARY:

Disc Title:
Disc Size: 46210929237 bytes
Protection: AACS
BD-Java: No
Playlist: 00002.MPLS
Size: 1740220416 bytes
Length: 0:07:42
Total Bitrate: 30,08 Mbps
Video: MPEG-4 AVC Video / 24983 kbps / 1080i / 29,970 fps / 16:9 / High Profile 4.1
Audio: German / LPCM Audio / 2.0 / 48 kHz / 1536 kbps / 16-bit
Audio: German / LPCM Audio / 2.0 / 48 kHz / 1536 kbps / 16-bit
Subtitle: English / 50,924 kbps
Subtitle: Chinese / 38,335 kbps
Subtitle: French / 54,594 kbps
Subtitle: German / 0,010 kbps
Subtitle: Spanish / 54,990 kbps

********************
PLAYLIST: 00005.MPLS
********************

<--- BEGIN FORUMS PASTE --->
[code]Total Video
Title Codec Length Movie Size Disc Size Bitrate Bitrate Main Audio Track Secondary Audio Track
----- ------ ------- -------------- -------------- ------- ------- ------------------ ---------------------
00005.MPLS AVC 0:04:33 1028020224 46210929237 30,07 24,97 LPCM 2.0 1536Kbps (48kHz/16-bit) LPCM 2.0 1536Kbps (48kHz/16-bit)[/code]
[code]DISC INFO:

Disc Title:
Disc Size: 46210929237 bytes
Protection: AACS
BD-Java: No
BDInfo: 0.5.3

PLAYLIST REPORT:

Name: 00005.MPLS
Length: 0:04:33 (h:m:s)
Size: 1028020224 bytes
Total Bitrate: 30,07 Mbps

VIDEO:

Codec Bitrate Description
----- ------- -----------
MPEG-4 AVC Video 24975 kbps 1080i / 29,970 fps / 16:9 / High Profile 4.1

AUDIO:

Codec Language Bitrate Description
----- -------- ------- -----------
LPCM Audio German 1536 kbps 2.0 / 48 kHz / 1536 kbps / 16-bit
LPCM Audio German 1536 kbps 2.0 / 48 kHz / 1536 kbps / 16-bit

SUBTITLES:

Codec Language Bitrate Description
----- -------- ------- -----------
Presentation Graphics English 51,095 kbps
Presentation Graphics Chinese 40,156 kbps
Presentation Graphics French 53,855 kbps
Presentation Graphics German 0,017 kbps
Presentation Graphics Spanish 55,704 kbps

FILES:

Name Time In Length Size Total Bitrate
---- ------- ------ ---- -------------
00006.M2TS 0:00:00.000 0:04:33.506 1028020224 30069

CHAPTERS:

Number Time In Length Avg Video Rate Max 1-Sec Rate Max 1-Sec Time Max 5-Sec Rate Max 5-Sec Time Max 10Sec Rate Max 10Sec Time Avg Frame Size Max Frame Size Max Frame Time
------ ------- ------ -------------- -------------- -------------- -------------- -------------- -------------- -------------- -------------- -------------- --------------
1 0:00:00.000 0:04:33.506 24975 kbps 42077 kbps 00:03:50.597 36598 kbps 00:01:31.491 35039 kbps 00:01:31.157 104166 bytes 340127 bytes 00:02:24.511

STREAM DIAGNOSTICS:

File PID Type Codec Language Seconds Bitrate Bytes Packets
---- --- ---- ----- -------- -------------- -------------- ------------- -----
00006.M2TS 4113 (0x1011) 0x1B AVC 273,373 24987 853849126 4649538
00006.M2TS 4352 (0x1100) 0x80 LPCM deu (German) 273,373 1543 52732728 328212
00006.M2TS 4353 (0x1101) 0x80 LPCM deu (German) 273,373 1543 52732728 328212
00006.M2TS 4608 (0x1200) 0x90 PGS fra (French) 273,373 54 1841203 10461
00006.M2TS 4609 (0x1201) 0x90 PGS eng (English) 273,373 51 1746852 9943
00006.M2TS 4610 (0x1202) 0x90 PGS deu (German) 273,373 0 597 10
00006.M2TS 4611 (0x1203) 0x90 PGS spa (Spanish) 273,373 56 1904422 10795
00006.M2TS 4612 (0x1204) 0x90 PGS zho (Chinese) 273,373 40 1372854 7913[/code]
<---- END FORUMS PASTE ---->

QUICK SUMMARY:

Disc Title:
Disc Size: 46210929237 bytes
Protection: AACS
BD-Java: No
Playlist: 00005.MPLS
Size: 1028020224 bytes
Length: 0:04:33
Total Bitrate: 30,07 Mbps
Video: MPEG-4 AVC Video / 24975 kbps / 1080i / 29,970 fps / 16:9 / High Profile 4.1
Audio: German / LPCM Audio / 2.0 / 48 kHz / 1536 kbps / 16-bit
Audio: German / LPCM Audio / 2.0 / 48 kHz / 1536 kbps / 16-bit
Subtitle: English / 51,095 kbps
Subtitle: Chinese / 40,156 kbps
Subtitle: French / 53,855 kbps
Subtitle: German / 0,017 kbps
Subtitle: Spanish / 55,704 kbps

********************
PLAYLIST: 00004.MPLS
********************

<--- BEGIN FORUMS PASTE --->
[code]Total Video
Title Codec Length Movie Size Disc Size Bitrate Bitrate Main Audio Track Secondary Audio Track
----- ------ ------- -------------- -------------- ------- ------- ------------------ ---------------------
00004.MPLS AVC 0:02:04 465426432 46210929237 30,01 24,94 LPCM 2.0 1536Kbps (48kHz/16-bit) LPCM 2.0 1536Kbps (48kHz/16-bit)[/code]
[code]DISC INFO:

Disc Title:
Disc Size: 46210929237 bytes
Protection: AACS
BD-Java: No
BDInfo: 0.5.3

PLAYLIST REPORT:

Name: 00004.MPLS
Length: 0:02:04 (h:m:s)
Size: 465426432 bytes
Total Bitrate: 30,01 Mbps

VIDEO:

Codec Bitrate Description
----- ------- -----------
MPEG-4 AVC Video 24944 kbps 1080i / 29,970 fps / 16:9 / High Profile 4.1

AUDIO:

Codec Language Bitrate Description
----- -------- ------- -----------
LPCM Audio German 1536 kbps 2.0 / 48 kHz / 1536 kbps / 16-bit
LPCM Audio German 1536 kbps 2.0 / 48 kHz / 1536 kbps / 16-bit

SUBTITLES:

Codec Language Bitrate Description
----- -------- ------- -----------
Presentation Graphics English 42,971 kbps
Presentation Graphics Chinese 35,645 kbps
Presentation Graphics French 44,787 kbps
Presentation Graphics German 0,038 kbps
Presentation Graphics Spanish 46,382 kbps

FILES:

Name Time In Length Size Total Bitrate
---- ------- ------ ---- -------------
00005.M2TS 0:00:00.000 0:02:04.090 465426432 30006

CHAPTERS:

Number Time In Length Avg Video Rate Max 1-Sec Rate Max 1-Sec Time Max 5-Sec Rate Max 5-Sec Time Max 10Sec Rate Max 10Sec Time Avg Frame Size Max Frame Size Max Frame Time
------ ------- ------ -------------- -------------- -------------- -------------- -------------- -------------- -------------- -------------- -------------- --------------
1 0:00:00.000 0:02:04.090 24944 kbps 35022 kbps 00:01:51.911 33381 kbps 00:01:47.273 33027 kbps 00:01:44.070 104038 bytes 291329 bytes 00:01:52.111

STREAM DIAGNOSTICS:

File PID Type Codec Language Seconds Bitrate Bytes Packets
---- --- ---- ----- -------- -------------- -------------- ------------- -----
00005.M2TS 4113 (0x1011) 0x1B AVC 124,024 24958 386918464 2107052
00005.M2TS 4352 (0x1100) 0x80 LPCM deu (German) 124,024 1543 23925516 148914
00005.M2TS 4353 (0x1101) 0x80 LPCM deu (German) 124,024 1543 23925516 148914
00005.M2TS 4608 (0x1200) 0x90 PGS fra (French) 124,024 45 694709 3960
00005.M2TS 4609 (0x1201) 0x90 PGS eng (English) 124,024 43 666544 3804
00005.M2TS 4610 (0x1202) 0x90 PGS deu (German) 124,024 0 597 10
00005.M2TS 4611 (0x1203) 0x90 PGS spa (Spanish) 124,024 46 719445 4092
00005.M2TS 4612 (0x1204) 0x90 PGS zho (Chinese) 124,024 36 552909 3186[/code]
<---- END FORUMS PASTE ---->

QUICK SUMMARY:

Disc Title:
Disc Size: 46210929237 bytes
Protection: AACS
BD-Java: No
Playlist: 00004.MPLS
Size: 465426432 bytes
Length: 0:02:04
Total Bitrate: 30,01 Mbps
Video: MPEG-4 AVC Video / 24944 kbps / 1080i / 29,970 fps / 16:9 / High Profile 4.1
Audio: German / LPCM Audio / 2.0 / 48 kHz / 1536 kbps / 16-bit
Audio: German / LPCM Audio / 2.0 / 48 kHz / 1536 kbps / 16-bit
Subtitle: English / 42,971 kbps
Subtitle: Chinese / 35,645 kbps
Subtitle: French / 44,787 kbps
Subtitle: German / 0,038 kbps
Subtitle: Spanish / 46,382 kbps

********************
PLAYLIST: 00003.MPLS
********************

<--- BEGIN FORUMS PASTE --->
[code]Total Video
Title Codec Length Movie Size Disc Size Bitrate Bitrate Main Audio Track Secondary Audio Track
----- ------ ------- -------------- -------------- ------- ------- ------------------ ---------------------
00003.MPLS AVC 0:01:26 323844096 46210929237 30,07 24,98 LPCM 2.0 1536Kbps (48kHz/16-bit) LPCM 2.0 1536Kbps (48kHz/16-bit)[/code]
[code]DISC INFO:

Disc Title:
Disc Size: 46210929237 bytes
Protection: AACS
BD-Java: No
BDInfo: 0.5.3

PLAYLIST REPORT:

Name: 00003.MPLS
Length: 0:01:26 (h:m:s)
Size: 323844096 bytes
Total Bitrate: 30,07 Mbps

VIDEO:

Codec Bitrate Description
----- ------- -----------
MPEG-4 AVC Video 24983 kbps 1080i / 29,970 fps / 16:9 / High Profile 4.1

AUDIO:

Codec Language Bitrate Description
----- -------- ------- -----------
LPCM Audio German 1536 kbps 2.0 / 48 kHz / 1536 kbps / 16-bit
LPCM Audio German 1536 kbps 2.0 / 48 kHz / 1536 kbps / 16-bit

SUBTITLES:

Codec Language Bitrate Description
----- -------- ------- -----------
Presentation Graphics English 50,160 kbps
Presentation Graphics Chinese 42,118 kbps
Presentation Graphics French 47,944 kbps
Presentation Graphics German 0,055 kbps
Presentation Graphics Spanish 53,982 kbps

FILES:

Name Time In Length Size Total Bitrate
---- ------- ------ ---- -------------
00004.M2TS 0:00:00.000 0:01:26.152 323844096 30072

CHAPTERS:

Number Time In Length Avg Video Rate Max 1-Sec Rate Max 1-Sec Time Max 5-Sec Rate Max 5-Sec Time Max 10Sec Rate Max 10Sec Time Avg Frame Size Max Frame Size Max Frame Time
------ ------- ------ -------------- -------------- -------------- -------------- -------------- -------------- -------------- -------------- -------------- --------------
1 0:00:00.000 0:01:26.152 24983 kbps 35240 kbps 00:00:07.841 31489 kbps 00:01:12.705 31324 kbps 00:01:12.839 104199 bytes 288510 bytes 00:00:59.259

STREAM DIAGNOSTICS:

File PID Type Codec Language Seconds Bitrate Bytes Packets
---- --- ---- ----- -------- -------------- -------------- ------------- -----
00004.M2TS 4113 (0x1011) 0x1B AVC 86,086 25002 269042464 1465171
00004.M2TS 4352 (0x1100) 0x80 LPCM deu (German) 86,086 1544 16610684 103386
00004.M2TS 4353 (0x1101) 0x80 LPCM deu (German) 86,086 1544 16610684 103386
00004.M2TS 4608 (0x1200) 0x90 PGS fra (French) 86,086 48 516317 2921
00004.M2TS 4609 (0x1201) 0x90 PGS eng (English) 86,086 50 540175 3050
00004.M2TS 4610 (0x1202) 0x90 PGS deu (German) 86,086 0 597 10
00004.M2TS 4611 (0x1203) 0x90 PGS spa (Spanish) 86,086 54 581332 3278
00004.M2TS 4612 (0x1204) 0x90 PGS zho (Chinese) 86,086 42 453571 2581[/code]
<---- END FORUMS PASTE ---->

QUICK SUMMARY:

Disc Title:
Disc Size: 46210929237 bytes
Protection: AACS
BD-Java: No
Playlist: 00003.MPLS
Size: 323844096 bytes
Length: 0:01:26
Total Bitrate: 30,07 Mbps
Video: MPEG-4 AVC Video / 24983 kbps / 1080i / 29,970 fps / 16:9 / High Profile 4.1
Audio: German / LPCM Audio / 2.0 / 48 kHz / 1536 kbps / 16-bit
Audio: German / LPCM Audio / 2.0 / 48 kHz / 1536 kbps / 16-bit
Subtitle: English / 50,160 kbps
Subtitle: Chinese / 42,118 kbps
Subtitle: French / 47,944 kbps
Subtitle: German / 0,055 kbps
Subtitle: Spanish / 53,982 kbps

********************
PLAYLIST: 00000.MPLS
********************

<--- BEGIN FORUMS PASTE --->
[code]Total Video
Title Codec Length Movie Size Disc Size Bitrate Bitrate Main Audio Track Secondary Audio Track
----- ------ ------- -------------- -------------- ------- ------- ------------------ ---------------------
00000.MPLS AVC 0:00:25 29890560 46210929237 9,37 8,89[/code]
[code]DISC INFO:

Disc Title:
Disc Size: 46210929237 bytes
Protection: AACS
BD-Java: No
BDInfo: 0.5.3

PLAYLIST REPORT:

Name: 00000.MPLS
Length: 0:00:25 (h:m:s)
Size: 29890560 bytes
Total Bitrate: 9,37 Mbps

VIDEO:

Codec Bitrate Description
----- ------- -----------
MPEG-4 AVC Video 8891 kbps 1080i / 29,970 fps / 16:9 / High Profile 4.1

FILES:

Name Time In Length Size Total Bitrate
---- ------- ------ ---- -------------
00001.M2TS 0:00:00.000 0:00:11.511 4761600 3309
00000.M2TS 0:00:11.511 0:00:14.014 25128960 14345

CHAPTERS:

Number Time In Length Avg Video Rate Max 1-Sec Rate Max 1-Sec Time Max 5-Sec Rate Max 5-Sec Time Max 10Sec Rate Max 10Sec Time Avg Frame Size Max Frame Size Max Frame Time
------ ------- ------ -------------- -------------- -------------- -------------- -------------- -------------- -------------- -------------- -------------- --------------
1 0:00:00.000 0:00:25.525 8891 kbps 21060 kbps 00:00:22.622 16996 kbps 00:00:19.285 16663 kbps 00:00:13.880 37081 bytes 195863 bytes 00:00:21.721

STREAM DIAGNOSTICS:

File PID Type Codec Language Seconds Bitrate Bytes Packets
---- --- ---- ----- -------- -------------- -------------- ------------- -----
00001.M2TS 4113 (0x1011) 0x1B AVC 11,411 3126 4459353 24395
00000.M2TS 4113 (0x1011) 0x1B AVC 13,914 13746 23907496 130409[/code]
<---- END FORUMS PASTE ---->

QUICK SUMMARY:

Disc Title:
Disc Size: 46210929237 bytes
Protection: AACS
BD-Java: No
Playlist: 00000.MPLS
Size: 29890560 bytes
Length: 0:00:25
Total Bitrate: 9,37 Mbps
Video: MPEG-4 AVC Video / 8891 kbps / 1080i / 29,970 fps / 16:9 / High Profile 4.1


 ·  , , FAQ-
:  [ 27--2011 21:13 ]

  

.torrent

.torrent 221 KB


: 43.04 GB
(hash) : 2a2cbcd3b372ea565550c8d4569e33b5ff12c8fd
··
...

Charles Gounod - Romeo et Juliette . !

!