- Massenet - Manon torrent

, , - AdBlock. #!


43.21 GB   |    :  6 1    |    .torrent :  134    |   
1  
   
...
 

L


- / Massenet - Manon / (Netrebko Villazon / ) [2007 ., , Blu-ray]

: 2007
:
: 2 38 36

: Vincent Paterson
: Daniel Barenboim

: Anna Netrebko - Manon, Rolando Villazon - Chevalier des Grieux, Alfredo Daza - Lescaut, Christof Fischesser - Le Comte des Grieux, Remy Corazza - Guillot de Morfontaine, Arttu Kataja - De Bretigny, Hanan Alattar - Poussette, Gal James - Javotte, Silvia de La Muela - Rosette,Matthias Vieweg - Wirt

:
; . . . . " ". : , " ", 19 1884 .
: (), (), (-), (), (), (), (), (), (); , , , , ; , , ; , , , , , , .
1721 .
- XX . , , - ( ) , ( ). , .
: , . , , . . , , , . , .
( ) , , . , , . ...Kastor.

: Blu-Ray (BD-50 Dual-Layer Disc)
: BDMV
: MPEG-4 AVC Video / 23906 kbps / 1080i / 29,970 fps / 16:9 / High Profile 4.1
: French / LPCM Audio / 5.1 / 48 kHz / 6912 kbps / 24-bit
: French / DTS-HD High-Res Audio / 5.1 / 48 kHz / 2046 kbps / 24-bit (DTS Core: 5.1 / 48 kHz / 1509 kbps / 24-bit)
: French / LPCM Audio / 2.0 / 48 kHz / 2304 kbps / 24-bit
: , , , ,
Disc Title: MANON
Disc Size: 46403905640 bytes
Protection: AACS
BD-Java: No
BDInfo: 0.5.3

Notes:

BDINFO HOME:
Cinema Squid
http://www.cinemasquid.com/blu-ray/tools/bdinfo

INCLUDES FORUMS REPORT FOR:
AVS Forum Blu-ray Audio and Video Specifications Thread
http://www.avsforum.com/avs-vb/showthread.php?t=1155731

********************
PLAYLIST: 00001.MPLS
********************

<--- BEGIN FORUMS PASTE --->

:

Total Video
Title Codec Length Movie Size Disc Size Bitrate Bitrate Main Audio Track Secondary Audio Track
----- ------ ------- -------------- -------------- ------- ------- ------------------ ---------------------
00001.MPLS AVC 2:38:36 44346003456 46403905640 37,28 23,91 LPCM 5.1 6912Kbps (48kHz/24-bit) DTS-HD Hi-Res 5.1 2046Kbps (48kHz/24-bit)[/spoiler]
[code]DISC INFO:

Disc Title: MANON
Disc Size: 46403905640 bytes
Protection: AACS
BD-Java: No
BDInfo: 0.5.3

PLAYLIST REPORT:

Name: 00001.MPLS
Length: 2:38:36 (h:m:s)
Size: 44346003456 bytes
Total Bitrate: 37,28 Mbps

VIDEO:

Codec Bitrate Description
----- ------- -----------
MPEG-4 AVC Video 23906 kbps 1080i / 29,970 fps / 16:9 / High Profile 4.1

AUDIO:

Codec Language Bitrate Description
----- -------- ------- -----------
LPCM Audio French 6912 kbps 5.1 / 48 kHz / 6912 kbps / 24-bit
DTS-HD High-Res Audio French 2046 kbps 5.1 / 48 kHz / 2046 kbps / 24-bit (DTS Core: 5.1 / 48 kHz / 1509 kbps / 24-bit)
LPCM Audio French 2304 kbps 2.0 / 48 kHz / 2304 kbps / 24-bit

SUBTITLES:

Codec Language Bitrate Description
----- -------- ------- -----------
Presentation Graphics English 22,734 kbps
Presentation Graphics Chinese 22,314 kbps
Presentation Graphics French 21,759 kbps
Presentation Graphics German 24,151 kbps
Presentation Graphics Spanish 20,616 kbps

FILES:

Name Time In Length Size Total Bitrate
---- ------- ------ ---- -------------
00000.M2TS 0:00:00.000 2:38:36.507 44346003456 37279

CHAPTERS:

Number Time In Length Avg Video Rate Max 1-Sec Rate Max 1-Sec Time Max 5-Sec Rate Max 5-Sec Time Max 10Sec Rate Max 10Sec Time Avg Frame Size Max Frame Size Max Frame Time
------ ------- ------ -------------- -------------- -------------- -------------- -------------- -------------- -------------- -------------- -------------- --------------
1 0:00:00.000 0:03:43.456 24877 kbps 37201 kbps 00:01:13.006 35477 kbps 00:01:11.204 34440 kbps 00:01:11.004 103742 bytes 495658 bytes 00:01:09.602
2 0:03:43.456 0:05:15.048 27006 kbps 38360 kbps 00:05:54.721 34887 kbps 00:03:54.701 33672 kbps 00:03:50.463 112639 bytes 495930 bytes 00:08:38.784
3 0:08:58.504 0:02:44.664 25635 kbps 41715 kbps 00:10:52.551 35749 kbps 00:10:52.952 34304 kbps 00:10:45.478 106918 bytes 495230 bytes 00:10:52.585
4 0:11:43.169 0:04:50.623 20088 kbps 34126 kbps 00:11:59.351 30720 kbps 00:11:46.372 30039 kbps 00:14:37.743 83782 bytes 442097 bytes 00:11:51.343
5 0:16:33.792 0:03:41.921 22892 kbps 36814 kbps 00:19:09.314 31718 kbps 00:18:12.391 30140 kbps 00:18:05.150 95478 bytes 494501 bytes 00:18:10.022
6 0:20:15.714 0:02:58.111 20883 kbps 30532 kbps 00:22:55.607 26851 kbps 00:22:36.354 26026 kbps 00:22:33.885 87100 bytes 479721 bytes 00:20:55.887
7 0:23:13.825 0:05:24.924 21196 kbps 33720 kbps 00:27:21.906 31006 kbps 00:27:01.820 28074 kbps 00:27:18.937 88404 bytes 494672 bytes 00:28:18.897
8 0:28:38.750 0:04:28.034 21291 kbps 30609 kbps 00:28:46.891 27056 kbps 00:29:49.420 25479 kbps 00:29:46.551 88802 bytes 495244 bytes 00:31:15.540
9 0:33:06.784 0:03:44.324 22487 kbps 35166 kbps 00:36:37.595 32683 kbps 00:36:34.225 29141 kbps 00:36:29.187 93790 bytes 492003 bytes 00:36:37.995
10 0:36:51.108 0:03:14.561 24103 kbps 40076 kbps 00:38:10.621 33828 kbps 00:38:10.054 29995 kbps 00:38:09.987 100528 bytes 489735 bytes 00:38:18.062
11 0:40:05.669 0:03:48.761 20332 kbps 34873 kbps 00:43:48.993 32156 kbps 00:43:45.956 28487 kbps 00:43:42.152 84802 bytes 455816 bytes 00:40:44.341
12 0:43:54.431 0:03:38.585 20823 kbps 30377 kbps 00:46:41.298 26826 kbps 00:43:57.634 24992 kbps 00:46:06.230 86850 bytes 473182 bytes 00:46:04.061
13 0:47:33.016 0:05:55.755 22333 kbps 34684 kbps 00:52:33.517 30306 kbps 00:52:31.314 27838 kbps 00:52:27.711 93145 bytes 494015 bytes 00:50:45.776
14 0:53:28.772 0:02:07.126 24100 kbps 37534 kbps 00:54:20.056 30554 kbps 00:54:17.087 28633 kbps 00:54:17.087 100519 bytes 486565 bytes 00:54:31.167
15 0:55:35.899 0:04:40.780 21222 kbps 30500 kbps 00:58:49.158 28803 kbps 00:58:45.121 27951 kbps 00:58:41.818 88513 bytes 480854 bytes 00:58:59.702
16 1:00:16.679 0:05:14.414 20111 kbps 38835 kbps 01:04:37.740 32531 kbps 01:04:34.937 30891 kbps 01:04:29.932 83880 bytes 485586 bytes 01:04:21.424
17 1:05:31.093 0:03:44.924 28062 kbps 45439 kbps 01:07:48.831 37093 kbps 01:07:44.994 34153 kbps 01:07:44.593 117040 bytes 495235 bytes 01:09:02.104
18 1:09:16.018 0:03:51.064 30111 kbps 43018 kbps 01:09:54.256 36542 kbps 01:11:40.796 36185 kbps 01:11:35.791 125586 bytes 496282 bytes 01:10:34.997
19 1:13:07.082 0:02:09.028 31870 kbps 40931 kbps 01:14:54.256 34648 kbps 01:14:20.956 34196 kbps 01:14:15.317 132926 bytes 496220 bytes 01:13:38.914
20 1:15:16.111 0:02:42.028 27961 kbps 42517 kbps 01:17:03.085 34881 kbps 01:17:03.051 34024 kbps 01:17:02.951 116619 bytes 496198 bytes 01:17:14.529
21 1:17:58.140 0:03:41.988 26101 kbps 39542 kbps 01:21:19.674 34918 kbps 01:21:31.519 34107 kbps 01:21:28.350 108861 bytes 493756 bytes 01:19:15.984
22 1:21:40.128 0:06:40.199 23008 kbps 38724 kbps 01:22:40.889 36022 kbps 01:21:46.434 35416 kbps 01:21:42.497 95962 bytes 496284 bytes 01:22:21.903
23 1:28:20.328 0:01:59.452 27016 kbps 37828 kbps 01:30:09.036 33280 kbps 01:30:06.634 32587 kbps 01:30:03.030 112681 bytes 495861 bytes 01:29:57.058
24 1:30:19.781 0:03:11.591 24587 kbps 43779 kbps 01:33:01.375 37512 kbps 01:33:01.075 35114 kbps 01:32:59.307 102547 bytes 495492 bytes 01:32:39.053
25 1:33:31.372 0:04:08.047 24331 kbps 37656 kbps 01:35:41.302 34029 kbps 01:35:37.398 31665 kbps 01:35:01.796 101481 bytes 495293 bytes 01:35:30.991
26 1:37:39.420 0:03:14.894 21398 kbps 29559 kbps 01:40:30.624 26647 kbps 01:38:44.118 25247 kbps 01:38:39.847 89247 bytes 451993 bytes 01:40:16.910
27 1:40:54.314 0:05:09.609 20941 kbps 35079 kbps 01:45:48.675 31558 kbps 01:45:46.239 27380 kbps 01:45:41.935 87341 bytes 457492 bytes 01:43:58.865
28 1:46:03.924 0:01:56.249 20910 kbps 43253 kbps 01:47:31.545 34821 kbps 01:47:28.875 31577 kbps 01:47:24.471 87212 bytes 493988 bytes 01:47:28.942
29 1:48:00.173 0:01:27.120 20359 kbps 41775 kbps 01:49:13.413 31253 kbps 01:49:12.445 27755 kbps 01:49:11.578 84912 bytes 480969 bytes 01:49:14.881
30 1:49:27.294 0:03:28.441 24447 kbps 38473 kbps 01:50:53.113 30564 kbps 01:50:50.610 28053 kbps 01:51:29.816 101966 bytes 485741 bytes 01:52:38.785
31 1:52:55.735 0:04:07.981 23712 kbps 37055 kbps 01:56:28.581 33898 kbps 01:56:25.712 29236 kbps 01:56:21.207 98898 bytes 494889 bytes 01:55:15.909
32 1:57:03.716 0:04:24.964 28972 kbps 42703 kbps 01:58:01.574 35368 kbps 02:00:23.316 34017 kbps 01:59:59.592 120839 bytes 495868 bytes 02:00:34.660
33 2:01:28.681 0:05:32.131 26441 kbps 39630 kbps 02:06:13.766 34626 kbps 02:06:34.753 34168 kbps 02:06:29.782 110281 bytes 496323 bytes 02:05:15.541
34 2:07:00.813 0:06:52.478 26795 kbps 45623 kbps 02:11:00.352 36879 kbps 02:13:14.953 36197 kbps 02:13:11.116 111759 bytes 493278 bytes 02:13:19.791
35 2:13:53.291 0:02:52.505 23336 kbps 35849 kbps 02:15:52.177 30397 kbps 02:15:21.480 29051 kbps 02:15:17.242 97331 bytes 492695 bytes 02:16:11.062
36 2:16:45.797 0:04:20.560 24015 kbps 36395 kbps 02:17:33.445 35077 kbps 02:17:30.041 34268 kbps 02:17:29.241 100163 bytes 487036 bytes 02:17:32.043
37 2:21:06.357 0:01:52.612 25423 kbps 36197 kbps 02:21:32.550 34904 kbps 02:21:31.516 33315 kbps 02:21:31.349 106035 bytes 482878 bytes 02:21:43.728
38 2:22:58.970 0:10:52.451 22837 kbps 42694 kbps 02:30:51.509 36270 kbps 02:32:14.391 35409 kbps 02:32:13.924 95250 bytes 495331 bytes 02:23:26.831
39 2:33:51.422 0:04:45.084 26237 kbps 44648 kbps 02:36:28.011 36972 kbps 02:37:27.004 35117 kbps 02:34:28.392 109442 bytes 496212 bytes 02:36:20.838

STREAM DIAGNOSTICS:

File PID Type Codec Language Seconds Bitrate Bytes Packets
---- --- ---- ----- -------- -------------- -------------- ------------- -----
00000.M2TS 4113 (0x1011) 0x1B AVC 9516,374 23907 28438096577 154721283
00000.M2TS 4352 (0x1100) 0x85 DTS-HD HR fra (French) 9516,374 2046 2433294160 14271520
00000.M2TS 4353 (0x1101) 0x80 LPCM fra (French) 9516,374 6917 8227983936 45668736
00000.M2TS 4354 (0x1102) 0x80 LPCM fra (French) 9516,374 2310 2747735616 15222912
00000.M2TS 4608 (0x1200) 0x90 PGS fra (French) 9516,374 22 25883539 149505
00000.M2TS 4609 (0x1201) 0x90 PGS eng (English) 9516,374 23 27044084 155824
00000.M2TS 4610 (0x1202) 0x90 PGS deu (German) 9516,374 24 28729493 164973
00000.M2TS 4611 (0x1203) 0x90 PGS spa (Spanish) 9516,374 21 24523733 142117
00000.M2TS 4612 (0x1204) 0x90 PGS zho (Chinese) 9516,374 22 26543490 153094[/code]
<---- END FORUMS PASTE ---->

QUICK SUMMARY:

Disc Title: MANON
Disc Size: 46403905640 bytes
Protection: AACS
BD-Java: No
Playlist: 00001.MPLS
Size: 44346003456 bytes
Length: 2:38:36
Total Bitrate: 37,28 Mbps
Video: MPEG-4 AVC Video / 23906 kbps / 1080i / 29,970 fps / 16:9 / High Profile 4.1
Audio: French / LPCM Audio / 5.1 / 48 kHz / 6912 kbps / 24-bit
Audio: French / DTS-HD High-Res Audio / 5.1 / 48 kHz / 2046 kbps / 24-bit (DTS Core: 5.1 / 48 kHz / 1509 kbps / 24-bit)
Audio: French / LPCM Audio / 2.0 / 48 kHz / 2304 kbps / 24-bit
Subtitle: English / 22,734 kbps
Subtitle: Chinese / 22,314 kbps
Subtitle: French / 21,759 kbps
Subtitle: German / 24,151 kbps
Subtitle: Spanish / 20,616 kbps

********************
PLAYLIST: 00006.MPLS
********************

<--- BEGIN FORUMS PASTE --->
[code]Total Video
Title Codec Length Movie Size Disc Size Bitrate Bitrate Main Audio Track Secondary Audio Track
----- ------ ------- -------------- -------------- ------- ------- ------------------ ---------------------
00006.MPLS AVC 0:19:32 1198110720 46403905640 8,17 6,99 DD AC3 2.0 224Kbps[/code]
[code]DISC INFO:

Disc Title: MANON
Disc Size: 46403905640 bytes
Protection: AACS
BD-Java: No
BDInfo: 0.5.3

PLAYLIST REPORT:

Name: 00006.MPLS
Length: 0:19:32 (h:m:s)
Size: 1198110720 bytes
Total Bitrate: 8,17 Mbps

VIDEO:

Codec Bitrate Description
----- ------- -----------
MPEG-4 AVC Video 6992 kbps 480i / 29,970 fps / 16:9 / High Profile 4.1

AUDIO:

Codec Language Bitrate Description
----- -------- ------- -----------
Dolby Digital Audio Undetermined 224 kbps 2.0 / 48 kHz / 224 kbps / DN -4dB
Dolby Digital Audio Undetermined 224 kbps 2.0 / 48 kHz / 224 kbps / DN -4dB
Dolby Digital Audio Undetermined 224 kbps 2.0 / 48 kHz / 224 kbps / DN -4dB

SUBTITLES:

Codec Language Bitrate Description
----- -------- ------- -----------
Presentation Graphics English 1,369 kbps
Presentation Graphics Chinese 12,979 kbps
Presentation Graphics French 19,664 kbps
Presentation Graphics German 18,188 kbps
Presentation Graphics Spanish 18,646 kbps

FILES:

Name Time In Length Size Total Bitrate
---- ------- ------ ---- -------------
00008.M2TS 0:00:00.000 0:19:31.537 1198086144 8181
00012.M2TS 0:19:31.537 0:00:01.000 24576 196

CHAPTERS:

Number Time In Length Avg Video Rate Max 1-Sec Rate Max 1-Sec Time Max 5-Sec Rate Max 5-Sec Time Max 10Sec Rate Max 10Sec Time Avg Frame Size Max Frame Size Max Frame Time
------ ------- ------ -------------- -------------- -------------- -------------- -------------- -------------- -------------- -------------- -------------- --------------
1 0:00:00.000 0:19:31.537 6998 kbps 13881 kbps 00:18:30.209 12609 kbps 00:06:14.640 11917 kbps 00:06:12.572 29188 bytes 145970 bytes 00:13:29.675
2 0:19:31.537 0:00:01.000 48 kbps 0 kbps 00:00:00.000 0 kbps 00:00:00.000 0 kbps 00:00:00.000 208 bytes 521 bytes 00:19:32.137

STREAM DIAGNOSTICS:

File PID Type Codec Language Seconds Bitrate Bytes Packets
---- --- ---- ----- -------- -------------- -------------- ------------- -----
00008.M2TS 4113 (0x1011) 0x1B AVC 1171,437 6999 1024838451 5590300
00008.M2TS 4352 (0x1100) 0x81 AC3 und (Undetermined) 1171,437 223 32690560 182425
00008.M2TS 4353 (0x1101) 0x81 AC3 und (Undetermined) 1171,437 223 32690560 182425
00008.M2TS 4354 (0x1102) 0x81 AC3 und (Undetermined) 1171,437 223 32690560 182425
00008.M2TS 4608 (0x1200) 0x90 PGS fra (French) 1171,437 20 2882088 17356
00008.M2TS 4609 (0x1201) 0x90 PGS eng (English) 1171,437 1 200720 1238
00008.M2TS 4610 (0x1202) 0x90 PGS deu (German) 1171,437 18 2665822 16027
00008.M2TS 4611 (0x1203) 0x90 PGS spa (Spanish) 1171,437 19 2732940 16539
00008.M2TS 4612 (0x1204) 0x90 PGS zho (Chinese) 1171,437 13 1902260 12032
00012.M2TS 4113 (0x1011) 0x1B AVC 0,901 58 6553 62[/code]
<---- END FORUMS PASTE ---->

QUICK SUMMARY:

Disc Title: MANON
Disc Size: 46403905640 bytes
Protection: AACS
BD-Java: No
Playlist: 00006.MPLS
Size: 1198110720 bytes
Length: 0:19:32
Total Bitrate: 8,17 Mbps
Video: MPEG-4 AVC Video / 6992 kbps / 480i / 29,970 fps / 16:9 / High Profile 4.1
Audio: Undetermined / Dolby Digital Audio / 2.0 / 48 kHz / 224 kbps / DN -4dB
Audio: Undetermined / Dolby Digital Audio / 2.0 / 48 kHz / 224 kbps / DN -4dB
Audio: Undetermined / Dolby Digital Audio / 2.0 / 48 kHz / 224 kbps / DN -4dB
Subtitle: English / 1,369 kbps
Subtitle: Chinese / 12,979 kbps
Subtitle: French / 19,664 kbps
Subtitle: German / 18,188 kbps
Subtitle: Spanish / 18,646 kbps

********************
PLAYLIST: 00005.MPLS
********************

<--- BEGIN FORUMS PASTE --->
[code]Total Video
Title Codec Length Movie Size Disc Size Bitrate Bitrate Main Audio Track Secondary Audio Track
----- ------ ------- -------------- -------------- ------- ------- ------------------ ---------------------
00005.MPLS AVC 0:04:29 255522816 46403905640 7,59 6,97 DD AC3 2.0 224Kbps[/code]
[code]DISC INFO:

Disc Title: MANON
Disc Size: 46403905640 bytes
Protection: AACS
BD-Java: No
BDInfo: 0.5.3

PLAYLIST REPORT:

Name: 00005.MPLS
Length: 0:04:29 (h:m:s)
Size: 255522816 bytes
Total Bitrate: 7,59 Mbps

VIDEO:

Codec Bitrate Description
----- ------- -----------
MPEG-4 AVC Video 6969 kbps 480i / 29,970 fps / 16:9 / High Profile 4.1

AUDIO:

Codec Language Bitrate Description
----- -------- ------- -----------
Dolby Digital Audio Undetermined 224 kbps 2.0 / 48 kHz / 224 kbps / DN -4dB

FILES:

Name Time In Length Size Total Bitrate
---- ------- ------ ---- -------------
00007.M2TS 0:00:00.000 0:04:28.301 255498240 7618
00012.M2TS 0:04:28.301 0:00:01.000 24576 196

CHAPTERS:

Number Time In Length Avg Video Rate Max 1-Sec Rate Max 1-Sec Time Max 5-Sec Rate Max 5-Sec Time Max 10Sec Rate Max 10Sec Time Avg Frame Size Max Frame Size Max Frame Time
------ ------- ------ -------------- -------------- -------------- -------------- -------------- -------------- -------------- -------------- -------------- --------------
1 0:00:00.000 0:04:28.301 6995 kbps 11380 kbps 00:02:40.727 10809 kbps 00:02:40.026 10284 kbps 00:02:37.423 29171 bytes 143822 bytes 00:01:33.860
2 0:04:28.301 0:00:01.000 48 kbps 0 kbps 00:00:00.000 0 kbps 00:00:00.000 0 kbps 00:00:00.000 208 bytes 521 bytes 00:04:28.901

STREAM DIAGNOSTICS:

File PID Type Codec Language Seconds Bitrate Bytes Packets
---- --- ---- ----- -------- -------------- -------------- ------------- -----
00007.M2TS 4113 (0x1011) 0x1B AVC 268,201 6998 234593212 1279613
00007.M2TS 4352 (0x1100) 0x81 AC3 und (Undetermined) 268,201 225 7539840 42075
00012.M2TS 4113 (0x1011) 0x1B AVC 0,901 58 6553 62[/code]
<---- END FORUMS PASTE ---->

QUICK SUMMARY:

Disc Title: MANON
Disc Size: 46403905640 bytes
Protection: AACS
BD-Java: No
Playlist: 00005.MPLS
Size: 255522816 bytes
Length: 0:04:29
Total Bitrate: 7,59 Mbps
Video: MPEG-4 AVC Video / 6969 kbps / 480i / 29,970 fps / 16:9 / High Profile 4.1
Audio: Undetermined / Dolby Digital Audio / 2.0 / 48 kHz / 224 kbps / DN -4dB

********************
PLAYLIST: 00004.MPLS
********************

<--- BEGIN FORUMS PASTE --->
[code]Total Video
Title Codec Length Movie Size Disc Size Bitrate Bitrate Main Audio Track Secondary Audio Track
----- ------ ------- -------------- -------------- ------- ------- ------------------ ---------------------
00004.MPLS AVC 0:02:15 130283520 46403905640 7,69 7,07 DD AC3 2.0 224Kbps[/code]
[code]DISC INFO:

Disc Title: MANON
Disc Size: 46403905640 bytes
Protection: AACS
BD-Java: No
BDInfo: 0.5.3

PLAYLIST REPORT:

Name: 00004.MPLS
Length: 0:02:15 (h:m:s)
Size: 130283520 bytes
Total Bitrate: 7,69 Mbps

VIDEO:

Codec Bitrate Description
----- ------- -----------
MPEG-4 AVC Video 7069 kbps 480i / 29,970 fps / 16:9 / High Profile 4.1

AUDIO:

Codec Language Bitrate Description
----- -------- ------- -----------
Dolby Digital Audio Undetermined 224 kbps 2.0 / 48 kHz / 224 kbps / DN -4dB

FILES:

Name Time In Length Size Total Bitrate
---- ------- ------ ---- -------------
00010.M2TS 0:00:00.000 0:02:14.467 130258944 7750
00012.M2TS 0:02:14.467 0:00:01.000 24576 196

CHAPTERS:

Number Time In Length Avg Video Rate Max 1-Sec Rate Max 1-Sec Time Max 5-Sec Rate Max 5-Sec Time Max 10Sec Rate Max 10Sec Time Avg Frame Size Max Frame Size Max Frame Time
------ ------- ------ -------------- -------------- -------------- -------------- -------------- -------------- -------------- -------------- -------------- --------------
1 0:00:00.000 0:02:14.467 7121 kbps 11740 kbps 00:01:19.112 10773 kbps 00:00:08.274 10229 kbps 00:00:03.470 29695 bytes 145939 bytes 00:01:19.412
2 0:02:14.467 0:00:01.000 48 kbps 0 kbps 00:00:00.000 0 kbps 00:00:00.000 0 kbps 00:00:00.000 208 bytes 521 bytes 00:02:15.068

STREAM DIAGNOSTICS:

File PID Type Codec Language Seconds Bitrate Bytes Packets
---- --- ---- ----- -------- -------------- -------------- ------------- -----
00010.M2TS 4113 (0x1011) 0x1B AVC 134,334 7129 119700323 652875
00010.M2TS 4352 (0x1100) 0x81 AC3 und (Undetermined) 134,334 224 3765888 21015
00012.M2TS 4113 (0x1011) 0x1B AVC 0,901 58 6553 62[/code]
<---- END FORUMS PASTE ---->

QUICK SUMMARY:

Disc Title: MANON
Disc Size: 46403905640 bytes
Protection: AACS
BD-Java: No
Playlist: 00004.MPLS
Size: 130283520 bytes
Length: 0:02:15
Total Bitrate: 7,69 Mbps
Video: MPEG-4 AVC Video / 7069 kbps / 480i / 29,970 fps / 16:9 / High Profile 4.1
Audio: Undetermined / Dolby Digital Audio / 2.0 / 48 kHz / 224 kbps / DN -4dB

********************
PLAYLIST: 00007.MPLS
********************

<--- BEGIN FORUMS PASTE --->
[code]Total Video
Title Codec Length Movie Size Disc Size Bitrate Bitrate Main Audio Track Secondary Audio Track
----- ------ ------- -------------- -------------- ------- ------- ------------------ ---------------------
00007.MPLS AVC 0:02:46 157495296 46403905640 7,57 6,95 DD AC3 2.0 224Kbps[/code]
[code]DISC INFO:

Disc Title: MANON
Disc Size: 46403905640 bytes
Protection: AACS
BD-Java: No
BDInfo: 0.5.3

PLAYLIST REPORT:

Name: 00007.MPLS
Length: 0:02:46 (h:m:s)
Size: 157495296 bytes
Total Bitrate: 7,57 Mbps

VIDEO:

Codec Bitrate Description
----- ------- -----------
MPEG-4 AVC Video 6948 kbps 480i / 29,970 fps / 4:3 / High Profile 4.1

AUDIO:

Codec Language Bitrate Description
----- -------- ------- -----------
Dolby Digital Audio Undetermined 224 kbps 2.0 / 48 kHz / 224 kbps / DN -4dB

FILES:

Name Time In Length Size Total Bitrate
---- ------- ------ ---- -------------
00009.M2TS 0:00:00.000 0:02:45.498 157470720 7612
00011.M2TS 0:02:45.498 0:00:01.000 24576 196

CHAPTERS:

Number Time In Length Avg Video Rate Max 1-Sec Rate Max 1-Sec Time Max 5-Sec Rate Max 5-Sec Time Max 10Sec Rate Max 10Sec Time Avg Frame Size Max Frame Size Max Frame Time
------ ------- ------ -------------- -------------- -------------- -------------- -------------- -------------- -------------- -------------- -------------- --------------
1 0:00:00.000 0:02:45.498 6990 kbps 13045 kbps 00:02:04.958 10959 kbps 00:02:02.489 10631 kbps 00:01:58.251 29146 bytes 142352 bytes 00:00:23.056
2 0:02:45.498 0:00:01.000 48 kbps 0 kbps 00:00:00.000 0 kbps 00:00:00.000 0 kbps 00:00:00.000 208 bytes 521 bytes 00:02:46.099

STREAM DIAGNOSTICS:

File PID Type Codec Language Seconds Bitrate Bytes Packets
---- --- ---- ----- -------- -------------- -------------- ------------- -----
00009.M2TS 4113 (0x1011) 0x1B AVC 165,432 6992 144594781 788719
00009.M2TS 4352 (0x1100) 0x81 AC3 und (Undetermined) 165,432 224 4634112 25860
00011.M2TS 4113 (0x1011) 0x1B AVC 0,901 58 6553 62[/code]
<---- END FORUMS PASTE ---->

QUICK SUMMARY:

Disc Title: MANON
Disc Size: 46403905640 bytes
Protection: AACS
BD-Java: No
Playlist: 00007.MPLS
Size: 157495296 bytes
Length: 0:02:46
Total Bitrate: 7,57 Mbps
Video: MPEG-4 AVC Video / 6948 kbps / 480i / 29,970 fps / 4:3 / High Profile 4.1
Audio: Undetermined / Dolby Digital Audio / 2.0 / 48 kHz / 224 kbps / DN -4dB

********************
PLAYLIST: 00002.MPLS
********************

<--- BEGIN FORUMS PASTE --->
[code]Total Video
Title Codec Length Movie Size Disc Size Bitrate Bitrate Main Audio Track Secondary Audio Track
----- ------ ------- -------------- -------------- ------- ------- ------------------ ---------------------
00002.MPLS AVC 0:00:26 32483328 46403905640 9,63 9,15[/code]
[code]DISC INFO:

Disc Title: MANON
Disc Size: 46403905640 bytes
Protection: AACS
BD-Java: No
BDInfo: 0.5.3

PLAYLIST REPORT:

Name: 00002.MPLS
Length: 0:00:26 (h:m:s)
Size: 32483328 bytes
Total Bitrate: 9,63 Mbps

VIDEO:

Codec Bitrate Description
----- ------- -----------
MPEG-4 AVC Video 9150 kbps 1080i / 29,970 fps / 16:9 / High Profile 4.1

FILES:

Name Time In Length Size Total Bitrate
---- ------- ------ ---- -------------
00003.M2TS 0:00:00.000 0:00:11.511 4761600 3309
00002.M2TS 0:00:11.511 0:00:14.481 27691008 15298
00005.M2TS 0:00:25.992 0:00:01.000 30720 246

CHAPTERS:

Number Time In Length Avg Video Rate Max 1-Sec Rate Max 1-Sec Time Max 5-Sec Rate Max 5-Sec Time Max 10Sec Rate Max 10Sec Time Avg Frame Size Max Frame Size Max Frame Time
------ ------- ------ -------------- -------------- -------------- -------------- -------------- -------------- -------------- -------------- -------------- --------------
1 0:00:00.000 0:00:11.511 3101 kbps 10395 kbps 00:00:01.000 3703 kbps 00:00:01.000 3527 kbps 00:00:01.000 12895 bytes 144632 bytes 00:00:01.801
2 0:00:11.511 0:00:14.481 14583 kbps 28924 kbps 00:00:14.714 22191 kbps 00:00:13.246 18377 kbps 00:00:13.246 60824 bytes 272611 bytes 00:00:15.715
3 0:00:25.992 0:00:01.000 111 kbps 0 kbps 00:00:00.000 0 kbps 00:00:00.000 0 kbps 00:00:00.000 478 bytes 2439 bytes 00:00:26.593

STREAM DIAGNOSTICS:

File PID Type Codec Language Seconds Bitrate Bytes Packets
---- --- ---- ----- -------- -------------- -------------- ------------- -----
00003.M2TS 4113 (0x1011) 0x1B AVC 11,411 3126 4459353 24395
00002.M2TS 4113 (0x1011) 0x1B AVC 14,414 14651 26397678 143728
00005.M2TS 4113 (0x1011) 0x1B AVC 0,901 145 16298 112[/code]
<---- END FORUMS PASTE ---->

QUICK SUMMARY:

Disc Title: MANON
Disc Size: 46403905640 bytes
Protection: AACS
BD-Java: No
Playlist: 00002.MPLS
Size: 32483328 bytes
Length: 0:00:26
Total Bitrate: 9,63 Mbps
Video: MPEG-4 AVC Video / 9150 kbps / 1080i / 29,970 fps / 16:9 / High Profile 4.1


 ·  , , FAQ-
:  [ 27--2011 21:12 ]

  

.torrent

.torrent 219 KB


: 43.21 GB
(hash) : c710e0e6ca8771c3f061ea061408b3bce3fea0f1
··
...

- Massenet - Manon . !

!