Vincenzo Bellini: I Puritani : "" torrent

, , - AdBlock. #!


43.4 GB   |    :  6 1    |    .torrent :  149    |   
1  
   
...
 

L


Vincenzo Bellini: I Puritani / : ""

: 2007
:
: 02 . 35 . 15

/ Metropolitan Opera Orchestra
: / Patrick Summers
: / Sharon Thomas

: Valerian Ruminski, Anna Netrebko, Maria Zifchak, Eric Cutler, Franco Vassallo, John Relyea, Eduardo Valdes, Metropolitan Opera Orchestra, Metropolitan Opera Chorus

: ; . . . , . .
: , 1835 .

: (), / (), / (), / (), / (), (), ().

. 1645. , , . . , , , , . , , I . , . , . , , . . . .

: Blu-Ray (BD-50 Dual-Layer Disc)
: BDMV
: MPEG-4 AVC Video / 24601 kbps / 1080i / 29,970 fps / 16:9 / High Profile 4.1
#1: Italian LPCM 5.1 (48 kHz / 6912 kbps / 24-bit)
#2: Italian DTS-HD MA 5.1 (48 kHz / 2046 kbps / 24-bit)
#3: Italian LPCM 2.0 (48 kHz / 2304 kbps / 24-bit)
: , , , ,

: HD-Club
, (), , (), , (), , (), , (), , I, - (-), , ().
, , , , , .

.
: , , . . . . - . .

. , . . . , , . , . , , . .

. , , , , .

. . ; .

. . , , . . , . , .

; , , , . , - I . - , . Apypa , . , .

. . , , , . , , . , . .

. , . : , . , : .

: . : , , . . . . ; .

.
. . , . : : , , .

, . , . ? , . . . : , , . : . . . .

.
. , ; . , , , , . .

. . ; . . , . , .

, . , , , , . , .

, , . , . , , . , , , , . .

, , . .
(3. XI. 1801, , - 23. IX. 1835, , )
, , "-", ( , , ). ( ) ( ). 1825 " ". , . 1827 " " "". 1828 : 1833 . , , . "" "" . , "", 1835 .
: (1825, 1826-27), (1826, ; 1828), (1827), (1829), (1829), (1830), (1831), (1831), (1833), (1835).
, : " " , (" ", "", "", " "). " " ( , ) , , , , , . , (, ), , , .
"" . , " ", , , , , . , " ", : - ( ), , , , . , , " , , . , , . , , , " , ". , ; ..." "", , - , , " " " "; , "" . ' "", . . , 1827 .
, , , "" , , . " " "" , , " ": , , -, " " (). , , , " " (). - , , , " , " ().
" ", "" "", 1833 " " . . . : . , , . , , , . , - . - - "", .
- "", : " . , . , , 1829 : " , , ". " ", ".
Disc Title:
Disc Size: 46603673624 bytes
Protection: AACS
BD-Java: No
BDInfo: 0.5.3

Notes:

BDINFO HOME:
Cinema Squid
http://www.cinemasquid.com/blu-ray/tools/bdinfo

INCLUDES FORUMS REPORT FOR:
AVS Forum Blu-ray Audio and Video Specifications Thread
http://www.avsforum.com/avs-vb/showthread.php?t=1155731

********************
PLAYLIST: 00000.MPLS
********************

<--- BEGIN FORUMS PASTE --->

:

Total Video
Title Codec Length Movie Size Disc Size Bitrate Bitrate Main Audio Track Secondary Audio Track
----- ------ ------- -------------- -------------- ------- ------- ------------------ ---------------------
00000.MPLS AVC 2:35:15 44195383296 46603673624 37,95 24,60 LPCM 5.1 6912Kbps (48kHz/24-bit) DTS-HD Hi-Res 5.1 2046Kbps (48kHz/24-bit)
[code]DISC INFO:

Disc Title:
Disc Size: 46603673624 bytes
Protection: AACS
BD-Java: No
BDInfo: 0.5.3

PLAYLIST REPORT:

Name: 00000.MPLS
Length: 2:35:15 (h:m:s)
Size: 44195383296 bytes
Total Bitrate: 37,95 Mbps

VIDEO:

Codec Bitrate Description
----- ------- -----------
MPEG-4 AVC Video 24601 kbps 1080i / 29,970 fps / 16:9 / High Profile 4.1

AUDIO:

Codec Language Bitrate Description
----- -------- ------- -----------
LPCM Audio Italian 6912 kbps 5.1 / 48 kHz / 6912 kbps / 24-bit
DTS-HD High-Res Audio Italian 2046 kbps 5.1 / 48 kHz / 2046 kbps / 24-bit (DTS Core: 5.1 / 48 kHz / 1509 kbps / 24-bit)
LPCM Audio Italian 2304 kbps 2.0 / 48 kHz / 2304 kbps / 24-bit

SUBTITLES:

Codec Language Bitrate Description
----- -------- ------- -----------
Presentation Graphics English 9,888 kbps
Presentation Graphics French 15,830 kbps
Presentation Graphics German 16,190 kbps
Presentation Graphics Italian 10,882 kbps
Presentation Graphics Spanish 14,809 kbps

FILES:

Name Time In Length Size Total Bitrate
---- ------- ------ ---- -------------
00000.M2TS 0:00:00.000 1:13:53.429 21340735488 38509
00001.M2TS 1:13:53.429 1:21:21.009 22854617088 37459
00008.M2TS 2:35:14.438 0:00:01.000 30720 246

CHAPTERS:

Number Time In Length Avg Video Rate Max 1-Sec Rate Max 1-Sec Time Max 5-Sec Rate Max 5-Sec Time Max 10Sec Rate Max 10Sec Time Avg Frame Size Max Frame Size Max Frame Time
------ ------- ------ -------------- -------------- -------------- -------------- -------------- -------------- -------------- -------------- -------------- --------------
1 0:00:00.000 0:02:52.505 22524 kbps 37107 kbps 00:02:38.791 34250 kbps 00:02:34.787 31989 kbps 00:02:29.782 93926 bytes 480889 bytes 00:02:27.680
2 0:02:52.505 0:04:14.187 24885 kbps 39811 kbps 00:06:46.806 36301 kbps 00:06:44.003 33437 kbps 00:03:08.054 103790 bytes 478920 bytes 00:06:44.504
3 0:07:06.692 0:02:20.106 24018 kbps 34611 kbps 00:07:15.001 30519 kbps 00:08:53.065 29998 kbps 00:07:07.193 100173 bytes 391661 bytes 00:07:15.368
4 0:09:26.799 0:02:08.394 28160 kbps 42677 kbps 00:09:32.004 34959 kbps 00:10:07.306 34210 kbps 00:10:05.938 117452 bytes 456374 bytes 00:10:38.838
5 0:11:35.194 0:02:57.844 25344 kbps 31943 kbps 00:11:47.740 30777 kbps 00:11:44.336 30057 kbps 00:11:44.136 105707 bytes 336905 bytes 00:14:02.741
6 0:14:33.038 0:07:18.404 24812 kbps 39576 kbps 00:18:54.700 34565 kbps 00:16:07.299 33503 kbps 00:16:02.294 103486 bytes 457889 bytes 00:16:12.271
7 0:21:51.443 0:05:37.370 24434 kbps 37949 kbps 00:25:08.206 33131 kbps 00:27:23.808 30076 kbps 00:27:18.803 101911 bytes 368134 bytes 00:22:17.969
8 0:27:28.813 0:03:15.862 26292 kbps 34191 kbps 00:27:31.416 33240 kbps 00:27:29.247 29212 kbps 00:27:28.813 109658 bytes 341412 bytes 00:27:36.021
9 0:30:44.676 0:02:27.981 25029 kbps 35000 kbps 00:32:44.329 32458 kbps 00:33:05.984 28343 kbps 00:32:39.090 104393 bytes 349803 bytes 00:33:08.553
10 0:33:12.657 0:02:35.688 25931 kbps 37272 kbps 00:35:23.721 35469 kbps 00:35:20.351 34718 kbps 00:35:20.318 108153 bytes 469882 bytes 00:35:24.122
11 0:35:48.346 0:05:59.192 25635 kbps 32878 kbps 00:39:48.586 30421 kbps 00:41:34.491 29189 kbps 00:36:06.364 106919 bytes 425725 bytes 00:36:12.770
12 0:41:47.538 0:03:09.622 28797 kbps 38498 kbps 00:41:57.715 34701 kbps 00:44:28.298 33522 kbps 00:44:25.596 120106 bytes 457972 bytes 00:44:18.555
13 0:44:57.161 0:03:21.968 29266 kbps 38866 kbps 00:46:15.139 35262 kbps 00:46:12.870 33779 kbps 00:46:11.969 122063 bytes 449027 bytes 00:45:50.848
14 0:48:19.129 0:04:18.992 28291 kbps 42302 kbps 00:50:25.822 35826 kbps 00:50:25.555 33864 kbps 00:50:24.021 117996 bytes 479535 bytes 00:50:32.829
15 0:52:38.121 0:05:07.340 28191 kbps 38784 kbps 00:56:54.110 36601 kbps 00:56:50.106 33707 kbps 00:56:48.638 117581 bytes 481547 bytes 00:56:51.975
16 0:57:45.462 0:03:21.401 26066 kbps 44790 kbps 00:58:00.643 36579 kbps 00:57:59.642 32299 kbps 00:58:36.446 108716 bytes 399644 bytes 00:58:40.450
17 1:01:06.863 0:05:52.418 23222 kbps 34157 kbps 01:04:07.710 32343 kbps 01:04:03.673 29408 kbps 01:04:01.103 96853 bytes 395666 bytes 01:04:05.508
18 1:06:59.281 0:02:42.562 25074 kbps 35675 kbps 01:07:21.804 32027 kbps 01:08:50.893 30367 kbps 01:07:42.525 104582 bytes 400273 bytes 01:08:56.499
19 1:09:41.844 0:04:11.584 14315 kbps 21711 kbps 01:09:59.361 20522 kbps 01:09:56.025 18680 kbps 01:09:51.353 59704 bytes 256170 bytes 01:09:58.527
20 1:13:53.429 0:04:10.183 20619 kbps 31426 kbps 01:17:07.723 26801 kbps 01:17:07.122 25562 kbps 01:17:02.317 85997 bytes 316664 bytes 01:15:23.652
21 1:18:03.612 0:07:10.563 23378 kbps 30756 kbps 01:19:33.869 28333 kbps 01:19:40.175 27205 kbps 01:19:34.569 97504 bytes 336016 bytes 01:23:21.329
22 1:25:14.175 0:02:49.068 23875 kbps 30191 kbps 01:26:27.081 28762 kbps 01:26:30.752 28346 kbps 01:26:25.780 99578 bytes 322549 bytes 01:27:02.016
23 1:28:03.244 0:11:50.142 25179 kbps 42108 kbps 01:37:04.485 33709 kbps 01:31:42.230 32952 kbps 01:36:56.110 105016 bytes 478453 bytes 01:31:44.799
24 1:39:53.387 0:06:00.126 23375 kbps 37347 kbps 01:44:40.807 33126 kbps 01:44:37.037 30775 kbps 01:44:31.832 97495 bytes 356921 bytes 01:42:11.825
25 1:45:53.513 0:06:49.942 22834 kbps 30911 kbps 01:50:32.492 28863 kbps 01:47:23.537 28063 kbps 01:50:28.888 95235 bytes 335763 bytes 01:50:37.664
26 1:52:43.456 0:05:33.766 23749 kbps 35222 kbps 01:56:22.642 32913 kbps 01:56:21.941 30637 kbps 01:56:20.740 99051 bytes 403126 bytes 01:56:22.108
27 1:58:17.223 0:01:46.105 13655 kbps 21986 kbps 01:58:18.925 17372 kbps 01:58:42.815 15636 kbps 01:59:02.135 56951 bytes 265954 bytes 01:58:47.053
28 2:00:03.329 0:05:15.081 24215 kbps 35664 kbps 02:03:51.123 33714 kbps 02:03:43.916 32889 kbps 02:03:42.715 100999 bytes 380115 bytes 02:02:22.001
29 2:05:18.410 0:05:19.686 25122 kbps 36143 kbps 02:06:15.768 34784 kbps 02:06:12.965 32840 kbps 02:06:12.164 104779 bytes 402325 bytes 02:06:13.165
30 2:10:38.096 0:06:19.378 26527 kbps 38926 kbps 02:12:47.559 35234 kbps 02:12:47.092 33563 kbps 02:12:42.120 110641 bytes 435946 bytes 02:15:52.310
31 2:16:57.475 0:04:00.940 23845 kbps 31570 kbps 02:19:54.018 29678 kbps 02:19:51.716 28630 kbps 02:19:52.117 99455 bytes 335348 bytes 02:19:56.087
32 2:20:58.416 0:03:01.948 25865 kbps 34742 kbps 02:21:36.521 31213 kbps 02:23:21.392 30566 kbps 02:23:18.122 107878 bytes 340107 bytes 02:22:15.827
33 2:24:00.365 0:05:47.346 25119 kbps 32950 kbps 02:29:33.731 31086 kbps 02:26:01.219 29504 kbps 02:28:50.054 104766 bytes 408185 bytes 02:27:06.584
34 2:29:47.712 0:04:38.111 26112 kbps 41724 kbps 02:30:25.216 33105 kbps 02:30:23.347 32324 kbps 02:30:16.207 108907 bytes 471583 bytes 02:31:23.874
35 2:34:25.823 0:00:48.615 27091 kbps 38986 kbps 02:35:04.495 32768 kbps 02:34:43.941 30879 kbps 02:34:38.535 112992 bytes 398992 bytes 02:35:03.494
36 2:35:14.438 0:00:01.001 111 kbps 0 kbps 00:00:00.000 0 kbps 00:00:00.000 0 kbps 00:00:00.000 478 bytes 2439 bytes 02:35:15.039

STREAM DIAGNOSTICS:

File PID Type Codec Language Seconds Bitrate Bytes Packets
---- --- ---- ----- -------- -------------- -------------- ------------- -----
00000.M2TS 4113 (0x1011) 0x1B AVC 4433,329 25126 13924006402 75751555
00000.M2TS 4352 (0x1100) 0x85 DTS-HD HR ita (Italian) 4433,329 2045 1133353056 6647232
00000.M2TS 4353 (0x1101) 0x80 LPCM ita (Italian) 4433,329 6915 3832326608 21271008
00000.M2TS 4354 (0x1102) 0x80 LPCM ita (Italian) 4433,329 2309 1279807092 7090344
00000.M2TS 4608 (0x1200) 0x90 PGS ita (Italian) 4433,329 12 6458771 37796
00000.M2TS 4609 (0x1201) 0x90 PGS eng (English) 4433,329 10 5624522 32642
00000.M2TS 4610 (0x1202) 0x90 PGS deu (German) 4433,329 18 10229494 58771
00000.M2TS 4611 (0x1203) 0x90 PGS fra (French) 4433,329 18 10020821 57624
00000.M2TS 4612 (0x1204) 0x90 PGS spa (Spanish) 4433,329 17 9380754 54157
00001.M2TS 4113 (0x1011) 0x1B AVC 4880,876 24130 14721876675 80095734
00001.M2TS 4352 (0x1100) 0x85 DTS-HD HR ita (Italian) 4880,876 2046 1248324616 7321552
00001.M2TS 4353 (0x1101) 0x80 LPCM ita (Italian) 4880,876 6919 4221097448 23428848
00001.M2TS 4354 (0x1102) 0x80 LPCM ita (Italian) 4880,876 2310 1409635688 7809616
00001.M2TS 4608 (0x1200) 0x90 PGS ita (Italian) 4880,876 10 6211987 36555
00001.M2TS 4609 (0x1201) 0x90 PGS eng (English) 4880,876 10 5888803 34278
00001.M2TS 4610 (0x1202) 0x90 PGS deu (German) 4880,876 14 8622271 49852
00001.M2TS 4611 (0x1203) 0x90 PGS fra (French) 4880,876 14 8412043 48735
00001.M2TS 4612 (0x1204) 0x90 PGS spa (Spanish) 4880,876 13 7863817 45745
00008.M2TS 4113 (0x1011) 0x1B AVC 0,901 145 16298 112[/code]
<---- END FORUMS PASTE ---->

QUICK SUMMARY:

Disc Title:
Disc Size: 46603673624 bytes
Protection: AACS
BD-Java: No
Playlist: 00000.MPLS
Size: 44195383296 bytes
Length: 2:35:15
Total Bitrate: 37,95 Mbps
Video: MPEG-4 AVC Video / 24601 kbps / 1080i / 29,970 fps / 16:9 / High Profile 4.1
Audio: Italian / LPCM Audio / 5.1 / 48 kHz / 6912 kbps / 24-bit
Audio: Italian / DTS-HD High-Res Audio / 5.1 / 48 kHz / 2046 kbps / 24-bit (DTS Core: 5.1 / 48 kHz / 1509 kbps / 24-bit)
Audio: Italian / LPCM Audio / 2.0 / 48 kHz / 2304 kbps / 24-bit
Subtitle: English / 9,888 kbps
Subtitle: French / 15,830 kbps
Subtitle: German / 16,190 kbps
Subtitle: Italian / 10,882 kbps
Subtitle: Spanish / 14,809 kbps

********************
PLAYLIST: 00003.MPLS
********************

<--- BEGIN FORUMS PASTE --->
[code]Total Video
Title Codec Length Movie Size Disc Size Bitrate Bitrate Main Audio Track Secondary Audio Track
----- ------ ------- -------------- -------------- ------- ------- ------------------ ---------------------
00003.MPLS AVC 0:13:26 1688125440 46603673624 16,76 15,09 DD AC3 2.0 224Kbps[/code]
[code]DISC INFO:

Disc Title:
Disc Size: 46603673624 bytes
Protection: AACS
BD-Java: No
BDInfo: 0.5.3

PLAYLIST REPORT:

Name: 00003.MPLS
Length: 0:13:26 (h:m:s)
Size: 1688125440 bytes
Total Bitrate: 16,76 Mbps

VIDEO:

Codec Bitrate Description
----- ------- -----------
MPEG-4 AVC Video 15094 kbps 1080i / 29,970 fps / 16:9 / High Profile 4.1

AUDIO:

Codec Language Bitrate Description
----- -------- ------- -----------
Dolby Digital Audio English 224 kbps 2.0 / 48 kHz / 224 kbps / DN -4dB
Dolby Digital Audio English 224 kbps 2.0 / 48 kHz / 224 kbps / DN -4dB
Dolby Digital Audio English 224 kbps 2.0 / 48 kHz / 224 kbps / DN -4dB

SUBTITLES:

Codec Language Bitrate Description
----- -------- ------- -----------
Presentation Graphics English 0,078 kbps
Presentation Graphics French 58,971 kbps
Presentation Graphics German 65,303 kbps
Presentation Graphics Italian 0,078 kbps
Presentation Graphics Spanish 66,486 kbps

FILES:

Name Time In Length Size Total Bitrate
---- ------- ------ ---- -------------
00003.M2TS 0:00:00.000 0:13:25.004 1688094720 16776
00008.M2TS 0:13:25.004 0:00:01.000 30720 246

CHAPTERS:

Number Time In Length Avg Video Rate Max 1-Sec Rate Max 1-Sec Time Max 5-Sec Rate Max 5-Sec Time Max 10Sec Rate Max 10Sec Time Avg Frame Size Max Frame Size Max Frame Time
------ ------- ------ -------------- -------------- -------------- -------------- -------------- -------------- -------------- -------------- -------------- --------------
1 0:00:00.000 0:13:25.004 15112 kbps 32677 kbps 00:04:01.674 27092 kbps 00:03:59.572 21165 kbps 00:03:59.572 63028 bytes 436069 bytes 00:04:02.642
2 0:13:25.004 0:00:01.000 111 kbps 0 kbps 00:00:00.000 0 kbps 00:00:00.000 0 kbps 00:00:00.000 478 bytes 2439 bytes 00:13:25.604

STREAM DIAGNOSTICS:

File PID Type Codec Language Seconds Bitrate Bytes Packets
---- --- ---- ----- -------- -------------- -------------- ------------- -----
00003.M2TS 4113 (0x1011) 0x1B AVC 804,904 15114 1520681755 8278782
00003.M2TS 4352 (0x1100) 0x81 AC3 eng (English) 804,904 224 22540672 125785
00003.M2TS 4353 (0x1101) 0x81 AC3 eng (English) 804,904 224 22540672 125785
00003.M2TS 4354 (0x1102) 0x81 AC3 eng (English) 804,904 224 22540672 125785
00003.M2TS 4608 (0x1200) 0x90 PGS ita (Italian) 804,904 0 7842 50
00003.M2TS 4609 (0x1201) 0x90 PGS eng (English) 804,904 0 7842 50
00003.M2TS 4610 (0x1202) 0x90 PGS deu (German) 804,904 65 6579282 37252
00003.M2TS 4611 (0x1203) 0x90 PGS fra (French) 804,904 59 5941318 33780
00003.M2TS 4612 (0x1204) 0x90 PGS spa (Spanish) 804,904 67 6698518 37891
00008.M2TS 4113 (0x1011) 0x1B AVC 0,901 145 16298 112[/code]
<---- END FORUMS PASTE ---->

QUICK SUMMARY:

Disc Title:
Disc Size: 46603673624 bytes
Protection: AACS
BD-Java: No
Playlist: 00003.MPLS
Size: 1688125440 bytes
Length: 0:13:26
Total Bitrate: 16,76 Mbps
Video: MPEG-4 AVC Video / 15094 kbps / 1080i / 29,970 fps / 16:9 / High Profile 4.1
Audio: English / Dolby Digital Audio / 2.0 / 48 kHz / 224 kbps / DN -4dB
Audio: English / Dolby Digital Audio / 2.0 / 48 kHz / 224 kbps / DN -4dB
Audio: English / Dolby Digital Audio / 2.0 / 48 kHz / 224 kbps / DN -4dB
Subtitle: English / 0,078 kbps
Subtitle: French / 58,971 kbps
Subtitle: German / 65,303 kbps
Subtitle: Italian / 0,078 kbps
Subtitle: Spanish / 66,486 kbps

********************
PLAYLIST: 00002.MPLS
********************

<--- BEGIN FORUMS PASTE --->
[code]Total Video
Title Codec Length Movie Size Disc Size Bitrate Bitrate Main Audio Track Secondary Audio Track
----- ------ ------- -------------- -------------- ------- ------- ------------------ ---------------------
00002.MPLS AVC 0:03:10 395151360 46603673624 16,58 14,91 DD AC3 2.0 224Kbps[/code]
[code]DISC INFO:

Disc Title:
Disc Size: 46603673624 bytes
Protection: AACS
BD-Java: No
BDInfo: 0.5.3

PLAYLIST REPORT:

Name: 00002.MPLS
Length: 0:03:10 (h:m:s)
Size: 395151360 bytes
Total Bitrate: 16,58 Mbps

VIDEO:

Codec Bitrate Description
----- ------- -----------
MPEG-4 AVC Video 14906 kbps 1080i / 29,970 fps / 16:9 / High Profile 4.1

AUDIO:

Codec Language Bitrate Description
----- -------- ------- -----------
Dolby Digital Audio English 224 kbps 2.0 / 48 kHz / 224 kbps / DN -4dB
Dolby Digital Audio English 224 kbps 2.0 / 48 kHz / 224 kbps / DN -4dB
Dolby Digital Audio English 224 kbps 2.0 / 48 kHz / 224 kbps / DN -4dB

SUBTITLES:

Codec Language Bitrate Description
----- -------- ------- -----------
Presentation Graphics English 0,329 kbps
Presentation Graphics French 65,982 kbps
Presentation Graphics German 70,530 kbps
Presentation Graphics Italian 0,329 kbps
Presentation Graphics Spanish 75,664 kbps

FILES:

Name Time In Length Size Total Bitrate
---- ------- ------ ---- -------------
00002.M2TS 0:00:00.000 0:03:09.656 395120640 16667
00008.M2TS 0:03:09.656 0:00:01.000 30720 246

CHAPTERS:

Number Time In Length Avg Video Rate Max 1-Sec Rate Max 1-Sec Time Max 5-Sec Rate Max 5-Sec Time Max 10Sec Rate Max 10Sec Time Avg Frame Size Max Frame Size Max Frame Time
------ ------- ------ -------------- -------------- -------------- -------------- -------------- -------------- -------------- -------------- -------------- --------------
1 0:00:00.000 0:03:09.656 14984 kbps 21194 kbps 00:02:51.237 18701 kbps 00:00:07.006 17907 kbps 00:00:07.173 62484 bytes 282032 bytes 00:02:30.850
2 0:03:09.656 0:00:01.000 111 kbps 0 kbps 00:00:00.000 0 kbps 00:00:00.000 0 kbps 00:00:00.000 478 bytes 2439 bytes 00:03:10.256

STREAM DIAGNOSTICS:

File PID Type Codec Language Seconds Bitrate Bytes Packets
---- --- ---- ----- -------- -------------- -------------- ------------- -----
00002.M2TS 4113 (0x1011) 0x1B AVC 189,589 14989 355221059 1933889
00002.M2TS 4352 (0x1100) 0x81 AC3 eng (English) 189,589 224 5311488 29640
00002.M2TS 4353 (0x1101) 0x81 AC3 eng (English) 189,589 224 5311488 29640
00002.M2TS 4354 (0x1102) 0x81 AC3 eng (English) 189,589 224 5311488 29640
00002.M2TS 4608 (0x1200) 0x90 PGS ita (Italian) 189,589 0 7842 50
00002.M2TS 4609 (0x1201) 0x90 PGS eng (English) 189,589 0 7842 50
00002.M2TS 4610 (0x1202) 0x90 PGS deu (German) 189,589 71 1680879 9516
00002.M2TS 4611 (0x1203) 0x90 PGS fra (French) 189,589 66 1572501 8923
00002.M2TS 4612 (0x1204) 0x90 PGS spa (Spanish) 189,589 76 1803236 10178
00008.M2TS 4113 (0x1011) 0x1B AVC 0,901 145 16298 112[/code]
<---- END FORUMS PASTE ---->

QUICK SUMMARY:

Disc Title:
Disc Size: 46603673624 bytes
Protection: AACS
BD-Java: No
Playlist: 00002.MPLS
Size: 395151360 bytes
Length: 0:03:10
Total Bitrate: 16,58 Mbps
Video: MPEG-4 AVC Video / 14906 kbps / 1080i / 29,970 fps / 16:9 / High Profile 4.1
Audio: English / Dolby Digital Audio / 2.0 / 48 kHz / 224 kbps / DN -4dB
Audio: English / Dolby Digital Audio / 2.0 / 48 kHz / 224 kbps / DN -4dB
Audio: English / Dolby Digital Audio / 2.0 / 48 kHz / 224 kbps / DN -4dB
Subtitle: English / 0,329 kbps
Subtitle: French / 65,982 kbps
Subtitle: German / 70,530 kbps
Subtitle: Italian / 0,329 kbps
Subtitle: Spanish / 75,664 kbps

********************
PLAYLIST: 00004.MPLS
********************

<--- BEGIN FORUMS PASTE --->
[code]Total Video
Title Codec Length Movie Size Disc Size Bitrate Bitrate Main Audio Track Secondary Audio Track
----- ------ ------- -------------- -------------- ------- ------- ------------------ ---------------------
00004.MPLS AVC 0:00:26 29921280 46603673624 9,02 8,56[/code]
[code]DISC INFO:

Disc Title:
Disc Size: 46603673624 bytes
Protection: AACS
BD-Java: No
BDInfo: 0.5.3

PLAYLIST REPORT:

Name: 00004.MPLS
Length: 0:00:26 (h:m:s)
Size: 29921280 bytes
Total Bitrate: 9,02 Mbps

VIDEO:

Codec Bitrate Description
----- ------- -----------
MPEG-4 AVC Video 8560 kbps 1080i / 29,970 fps / 16:9 / High Profile 4.1

FILES:

Name Time In Length Size Total Bitrate
---- ------- ------ ---- -------------
00006.M2TS 0:00:00.000 0:00:11.511 4761600 3309
00007.M2TS 0:00:11.511 0:00:14.014 25128960 14345
00008.M2TS 0:00:25.525 0:00:01.000 30720 246

CHAPTERS:

Number Time In Length Avg Video Rate Max 1-Sec Rate Max 1-Sec Time Max 5-Sec Rate Max 5-Sec Time Max 10Sec Rate Max 10Sec Time Avg Frame Size Max Frame Size Max Frame Time
------ ------- ------ -------------- -------------- -------------- -------------- -------------- -------------- -------------- -------------- -------------- --------------
1 0:00:00.000 0:00:11.511 3100 kbps 10395 kbps 00:00:01.000 3703 kbps 00:00:01.000 3527 kbps 00:00:01.000 12893 bytes 144632 bytes 00:00:01.801
2 0:00:11.511 0:00:14.014 13648 kbps 21060 kbps 00:00:22.622 16996 kbps 00:00:19.285 16663 kbps 00:00:13.880 56925 bytes 195863 bytes 00:00:21.721
3 0:00:25.525 0:00:01.000 111 kbps 0 kbps 00:00:00.000 0 kbps 00:00:00.000 0 kbps 00:00:00.000 478 bytes 2439 bytes 00:00:26.126

STREAM DIAGNOSTICS:

File PID Type Codec Language Seconds Bitrate Bytes Packets
---- --- ---- ----- -------- -------------- -------------- ------------- -----
00006.M2TS 4113 (0x1011) 0x1B AVC 11,411 3126 4459353 24395
00007.M2TS 4113 (0x1011) 0x1B AVC 13,914 13746 23907496 130409
00008.M2TS 4113 (0x1011) 0x1B AVC 0,901 145 16298 112[/code]
<---- END FORUMS PASTE ---->

QUICK SUMMARY:

Disc Title:
Disc Size: 46603673624 bytes
Protection: AACS
BD-Java: No
Playlist: 00004.MPLS
Size: 29921280 bytes
Length: 0:00:26
Total Bitrate: 9,02 Mbps
Video: MPEG-4 AVC Video / 8560 kbps / 1080i / 29,970 fps / 16:9 / High Profile 4.1


 ·  , , FAQ-
:  [ 27--2011 21:12 ]

  

.torrent

.torrent 222 KB


: 43.4 GB
(hash) : 041b00f74a98a913048fe7e9b13feba704af9e4e
··
...

Vincenzo Bellini: I Puritani : "" . !

!