Mozart - Die Zauberflote torrent

, , - AdBlock. #!


44.34 GB   |    :  6 1    |    .torrent :  155    |   
1  
   
...
 

L


: " " / Mozart: Die Zauberflöte

: 2003
:
: 02 . 42 . 37 .
:

: Will Hartmann, Dorothea Röschmann, Diana Damrau, Franz-Josef Selig, Simon Keenlyside, Ailish Tynan, Adrian Thompson, The Royal Opera Chorus, The Orchestra of the Royal Opera House
Sir Colin Davis

; . .
: , " ", 30 1791 .


: Blu-Ray (BD-50 Dual-Layer Disc)
: BDMV
: MPEG-4 AVC Video / 19892 kbps / 1920x1080i / 29,970 fps / 16:9 / High Profile 4.1
#1:LPCM 5.1 (48 kHz / 6912 kbps / 24-bit)
#2:LPCM 2.0 (48 kHz / 2304 kbps / 24-bit)
: , ,

:
:
(), (), (), (), (), , ( ), (), (), (), , , ( , ), ( ), (), (), , , ( ), , , ( ).

. , . . . , .

. . , . . , -. . - , . .

. . , , . ? . . ! - , , . , . .

. . : , , , " ".

. -. ' ' (Die Zauberflote). , . - . . ... ,- ,- " " - .

. . . . .

, . , . , , . : . , . - - .

: , , , .

, , . . . . , . , , . . . , ... . , . , , . .

, . , , . . . , : - , , . , . .

, . , . , . . .

. . , . , : , , , .

, . : - . . .

... . . : . , .

. - !

. -. ' ' (Die Zauberflote). . . , : , . . .

. , .

. , , , . . . - - .

. - . , , . . , , .

, .

, . , , , , . . , . . , , , . . . . , , .

. , . , , . . , . ? ..

. , - , . . . .

. . , ; . . . : .

. , . - . . , . . . . - . . , .

. - . : ! . : .

. . . . .

: , . . ... .

. . . , . , . , .
1791 , (17511812) (17331813) , (17861789). , . , , , , , , .

, , - , , . , , , , , . . , , , , , , , , , , , , , , . . .

, XVIII . , , , , , . , , , , . , 1789 , 1794 II .

, , . . . , , , -. - , , , . , , , . , , .

, , . 30 1791 .
; . , . ; . ( , ) ( ), , . , ; . , , , , ; .

. () , . - , , , .

: , , , , .

, . , . . : .

; . , , .

; . , .

, .

: , , . .
Disc Title:
Disc Size: 47608837092 bytes
Protection: AACS
BD-Java: No
BDInfo: 0.5.3

Notes:

BDINFO HOME:
Cinema Squid
http://www.cinemasquid.com/blu-ray/tools/bdinfo

INCLUDES FORUMS REPORT FOR:
AVS Forum Blu-ray Audio and Video Specifications Thread
http://www.avsforum.com/avs-vb/showthread.php?t=1155731

********************
PLAYLIST: 00000.MPLS
********************

<--- BEGIN FORUMS PASTE --->

:

Total Video
Title Codec Length Movie Size Disc Size Bitrate Bitrate Main Audio Track Secondary Audio Track
----- ------ ------- -------------- -------------- ------- ------- ------------------ ---------------------
00000.MPLS AVC 2:42:37 45504448512 47608837092 37,31 26,19 LPCM 5.1 6912Kbps (48kHz/24-bit) LPCM 2.0 2304Kbps (48kHz/24-bit)
[code]DISC INFO:

Disc Title:
Disc Size: 47608837092 bytes
Protection: AACS
BD-Java: No
BDInfo: 0.5.3

PLAYLIST REPORT:

Name: 00000.MPLS
Length: 2:42:37 (h:m:s)
Size: 45504448512 bytes
Total Bitrate: 37,31 Mbps

VIDEO:

Codec Bitrate Description
----- ------- -----------
MPEG-4 AVC Video 26194 kbps 1080i / 29,970 fps / 16:9 / High Profile 4.1

AUDIO:

Codec Language Bitrate Description
----- -------- ------- -----------
LPCM Audio German 6912 kbps 5.1 / 48 kHz / 6912 kbps / 24-bit
LPCM Audio German 2304 kbps 2.0 / 48 kHz / 2304 kbps / 24-bit

SUBTITLES:

Codec Language Bitrate Description
----- -------- ------- -----------
Presentation Graphics English 19,432 kbps
Presentation Graphics French 22,059 kbps
Presentation Graphics Spanish 20,526 kbps

FILES:

Name Time In Length Size Total Bitrate
---- ------- ------ ---- -------------
00000.M2TS 0:00:00.000 2:42:37.380 45504448512 37309

CHAPTERS:

Number Time In Length Avg Video Rate Max 1-Sec Rate Max 1-Sec Time Max 5-Sec Rate Max 5-Sec Time Max 10Sec Rate Max 10Sec Time Avg Frame Size Max Frame Size Max Frame Time
------ ------- ------ -------------- -------------- -------------- -------------- -------------- -------------- -------------- -------------- -------------- --------------
1 0:00:00.000 0:07:31.684 26874 kbps 38186 kbps 00:01:08.735 35855 kbps 00:01:06.332 34998 kbps 00:01:04.164 112080 bytes 458206 bytes 00:01:09.569
2 0:07:31.684 0:06:36.395 20842 kbps 34297 kbps 00:13:56.569 32044 kbps 00:12:32.618 29771 kbps 00:07:57.210 86930 bytes 408568 bytes 00:10:38.471
3 0:14:08.080 0:05:48.281 25977 kbps 39883 kbps 00:16:51.010 37263 kbps 00:16:47.206 33657 kbps 00:18:46.892 108348 bytes 501103 bytes 00:16:49.174
4 0:19:56.361 0:04:41.080 27446 kbps 38364 kbps 00:20:54.720 35481 kbps 00:20:54.920 34561 kbps 00:20:54.686 114474 bytes 481242 bytes 00:20:32.397
5 0:24:37.442 0:05:13.613 26175 kbps 40908 kbps 00:24:49.087 36993 kbps 00:24:46.151 35313 kbps 00:24:42.013 109172 bytes 523380 bytes 00:24:47.452
6 0:29:51.055 0:06:24.217 29444 kbps 42218 kbps 00:32:02.420 37226 kbps 00:31:58.583 36373 kbps 00:30:43.241 122805 bytes 521246 bytes 00:32:02.487
7 0:36:15.273 0:04:08.548 28711 kbps 43864 kbps 00:36:32.023 35271 kbps 00:36:28.486 34706 kbps 00:40:13.177 119751 bytes 474679 bytes 00:40:20.050
8 0:40:23.821 0:03:39.452 26172 kbps 35548 kbps 00:40:46.410 33039 kbps 00:40:30.728 32756 kbps 00:40:30.728 109161 bytes 508987 bytes 00:40:36.801
9 0:44:03.273 0:25:03.134 27640 kbps 44854 kbps 01:04:21.524 38731 kbps 00:59:03.306 37680 kbps 00:44:07.645 115281 bytes 524045 bytes 01:04:10.646
10 1:09:06.408 0:06:11.037 28141 kbps 44672 kbps 01:13:50.159 37729 kbps 01:13:46.288 36475 kbps 01:13:42.851 117372 bytes 518638 bytes 01:09:10.412
11 1:15:17.446 0:05:11.144 25067 kbps 39318 kbps 01:20:04.299 32830 kbps 01:20:03.131 30361 kbps 01:15:18.013 104552 bytes 463312 bytes 01:16:45.601
12 1:20:28.590 0:01:23.183 29199 kbps 34517 kbps 01:21:45.734 33874 kbps 01:21:41.930 33656 kbps 01:21:38.260 121782 bytes 445602 bytes 01:20:46.041
13 1:21:51.773 0:03:58.571 24573 kbps 39836 kbps 01:23:37.178 33015 kbps 01:23:33.808 29864 kbps 01:23:31.806 102489 bytes 508426 bytes 01:23:37.779
14 1:25:50.345 0:03:33.947 23820 kbps 40352 kbps 01:28:13.087 37062 kbps 01:28:00.174 32884 kbps 01:27:57.472 99351 bytes 516956 bytes 01:28:03.645
15 1:29:24.292 0:04:51.024 24758 kbps 35722 kbps 01:29:57.024 30014 kbps 01:30:51.512 29174 kbps 01:31:31.085 103262 bytes 399128 bytes 01:30:26.087
16 1:34:15.316 0:07:46.799 24977 kbps 36402 kbps 01:41:40.194 33761 kbps 01:38:38.545 32911 kbps 01:38:34.208 104176 bytes 490189 bytes 01:38:42.049
17 1:42:02.116 0:03:02.081 23999 kbps 35047 kbps 01:44:41.642 29887 kbps 01:42:10.124 28179 kbps 01:42:05.252 100096 bytes 394675 bytes 01:42:14.128
18 1:45:04.197 0:04:58.431 19197 kbps 28635 kbps 01:49:04.070 25058 kbps 01:49:02.435 23144 kbps 01:48:57.230 80067 bytes 337759 bytes 01:48:24.531
19 1:50:02.629 0:03:45.658 24452 kbps 41314 kbps 01:53:29.469 36726 kbps 01:53:28.902 36362 kbps 01:52:51.297 101987 bytes 524137 bytes 01:52:56.536
20 1:53:48.288 0:05:41.140 24356 kbps 36392 kbps 01:57:28.574 35625 kbps 01:57:25.438 35244 kbps 01:57:20.666 101586 bytes 478165 bytes 01:57:57.770
21 1:59:29.428 0:05:46.079 24752 kbps 37183 kbps 02:05:14.507 31488 kbps 02:03:54.026 31169 kbps 02:03:49.021 103235 bytes 458353 bytes 02:03:45.651
22 2:05:15.508 0:32:14.599 27024 kbps 40501 kbps 02:30:22.513 37545 kbps 02:37:25.102 37067 kbps 02:12:27.606 112712 bytes 525016 bytes 02:15:43.068
23 2:37:30.107 0:05:07.273 29962 kbps 41147 kbps 02:39:38.368 38043 kbps 02:41:51.101 37617 kbps 02:41:47.164 124981 bytes 524890 bytes 02:37:32.109

STREAM DIAGNOSTICS:

File PID Type Codec Language Seconds Bitrate Bytes Packets
---- --- ---- ----- -------- -------------- -------------- ------------- -----
00000.M2TS 4113 (0x1011) 0x1B AVC 9757,248 26194 31947743014 173799725
00000.M2TS 4352 (0x1100) 0x80 LPCM deu (German) 9757,248 2310 2817932788 15611816
00000.M2TS 4353 (0x1101) 0x80 LPCM deu (German) 9757,248 6918 8438186548 46835448
00000.M2TS 4608 (0x1200) 0x90 PGS eng (English) 9757,248 19 23701063 134604
00000.M2TS 4609 (0x1201) 0x90 PGS fra (French) 9757,248 22 26905053 151995
00000.M2TS 4610 (0x1202) 0x90 PGS spa (Spanish) 9757,248 21 25035006 141845[/code]
<---- END FORUMS PASTE ---->

QUICK SUMMARY:

Disc Title:
Disc Size: 47608837092 bytes
Protection: AACS
BD-Java: No
Playlist: 00000.MPLS
Size: 45504448512 bytes
Length: 2:42:37
Total Bitrate: 37,31 Mbps
Video: MPEG-4 AVC Video / 26194 kbps / 1080i / 29,970 fps / 16:9 / High Profile 4.1
Audio: German / LPCM Audio / 5.1 / 48 kHz / 6912 kbps / 24-bit
Audio: German / LPCM Audio / 2.0 / 48 kHz / 2304 kbps / 24-bit
Subtitle: English / 19,432 kbps
Subtitle: French / 22,059 kbps
Subtitle: Spanish / 20,526 kbps

********************
PLAYLIST: 00004.MPLS
********************

<--- BEGIN FORUMS PASTE --->
[code]Total Video
Title Codec Length Movie Size Disc Size Bitrate Bitrate Main Audio Track Secondary Audio Track
----- ------ ------- -------------- -------------- ------- ------- ------------------ ---------------------
00004.MPLS MPEG-2 0:09:32 698812416 47608837092 9,77 9,00 DD AC3 2.0 192Kbps[/code]
[code]DISC INFO:

Disc Title:
Disc Size: 47608837092 bytes
Protection: AACS
BD-Java: No
BDInfo: 0.5.3

PLAYLIST REPORT:

Name: 00004.MPLS
Length: 0:09:32 (h:m:s)
Size: 698812416 bytes
Total Bitrate: 9,77 Mbps

VIDEO:

Codec Bitrate Description
----- ------- -----------
MPEG-2 Video 9000 kbps 480i / 29,970 fps / 16:9

AUDIO:

Codec Language Bitrate Description
----- -------- ------- -----------
Dolby Digital Audio English 192 kbps 2.0 / 48 kHz / 192 kbps / DN -4dB

SUBTITLES:

Codec Language Bitrate Description
----- -------- ------- -----------
Presentation Graphics French 16,451 kbps
Presentation Graphics German 17,623 kbps
Presentation Graphics Spanish 16,184 kbps

FILES:

Name Time In Length Size Total Bitrate
---- ------- ------ ---- -------------
00004.M2TS 0:00:00.000 0:09:32.238 698812416 9770

CHAPTERS:

Number Time In Length Avg Video Rate Max 1-Sec Rate Max 1-Sec Time Max 5-Sec Rate Max 5-Sec Time Max 10Sec Rate Max 10Sec Time Avg Frame Size Max Frame Size Max Frame Time
------ ------- ------ -------------- -------------- -------------- -------------- -------------- -------------- -------------- -------------- -------------- --------------
1 0:00:00.000 0:09:32.238 9000 kbps 10436 kbps 00:06:12.972 9238 kbps 00:00:00.700 9123 kbps 00:06:13.072 37538 bytes 150968 bytes 00:04:08.248

STREAM DIAGNOSTICS:

File PID Type Codec Language Seconds Bitrate Bytes Packets
---- --- ---- ----- -------- -------------- -------------- ------------- -----
00004.M2TS 4113 (0x1011) 0x02 MPEG-2 572,138 9002 643768132 3508792
00004.M2TS 4352 (0x1100) 0x81 AC3 eng (English) 572,138 192 13734144 89415
00004.M2TS 4608 (0x1200) 0x90 PGS fra (French) 572,138 16 1176737 7295
00004.M2TS 4609 (0x1201) 0x90 PGS deu (German) 572,138 18 1260577 7749
00004.M2TS 4610 (0x1202) 0x90 PGS spa (Spanish) 572,138 16 1157615 7190[/code]
<---- END FORUMS PASTE ---->

QUICK SUMMARY:

Disc Title:
Disc Size: 47608837092 bytes
Protection: AACS
BD-Java: No
Playlist: 00004.MPLS
Size: 698812416 bytes
Length: 0:09:32
Total Bitrate: 9,77 Mbps
Video: MPEG-2 Video / 9000 kbps / 480i / 29,970 fps / 16:9
Audio: English / Dolby Digital Audio / 2.0 / 48 kHz / 192 kbps / DN -4dB
Subtitle: French / 16,451 kbps
Subtitle: German / 17,623 kbps
Subtitle: Spanish / 16,184 kbps

********************
PLAYLIST: 00003.MPLS
********************

<--- BEGIN FORUMS PASTE --->
[code]Total Video
Title Codec Length Movie Size Disc Size Bitrate Bitrate Main Audio Track Secondary Audio Track
----- ------ ------- -------------- -------------- ------- ------- ------------------ ---------------------
00003.MPLS MPEG-2 0:06:37 485425152 47608837092 9,77 9,00 DD AC3 2.0 192Kbps[/code]
[code]DISC INFO:

Disc Title:
Disc Size: 47608837092 bytes
Protection: AACS
BD-Java: No
BDInfo: 0.5.3

PLAYLIST REPORT:

Name: 00003.MPLS
Length: 0:06:37 (h:m:s)
Size: 485425152 bytes
Total Bitrate: 9,77 Mbps

VIDEO:

Codec Bitrate Description
----- ------- -----------
MPEG-2 Video 9000 kbps 480i / 29,970 fps / 16:9

AUDIO:

Codec Language Bitrate Description
----- -------- ------- -----------
Dolby Digital Audio English 192 kbps 2.0 / 48 kHz / 192 kbps / DN -4dB

SUBTITLES:

Codec Language Bitrate Description
----- -------- ------- -----------
Presentation Graphics French 16,731 kbps
Presentation Graphics German 17,576 kbps
Presentation Graphics Spanish 16,108 kbps

FILES:

Name Time In Length Size Total Bitrate
---- ------- ------ ---- -------------
00003.M2TS 0:00:00.000 0:06:37.430 485425152 9771

CHAPTERS:

Number Time In Length Avg Video Rate Max 1-Sec Rate Max 1-Sec Time Max 5-Sec Rate Max 5-Sec Time Max 10Sec Rate Max 10Sec Time Avg Frame Size Max Frame Size Max Frame Time
------ ------- ------ -------------- -------------- -------------- -------------- -------------- -------------- -------------- -------------- -------------- --------------
1 0:00:00.000 0:06:37.430 9000 kbps 10512 kbps 00:01:57.517 9300 kbps 00:00:07.707 9152 kbps 00:02:05.658 37538 bytes 152336 bytes 00:04:30.169

STREAM DIAGNOSTICS:

File PID Type Codec Language Seconds Bitrate Bytes Packets
---- --- ---- ----- -------- -------------- -------------- ------------- -----
00003.M2TS 4113 (0x1011) 0x02 MPEG-2 397,330 9002 447109168 2437349
00003.M2TS 4352 (0x1100) 0x81 AC3 eng (English) 397,330 192 9538560 62100
00003.M2TS 4608 (0x1200) 0x90 PGS fra (French) 397,330 17 831157 5127
00003.M2TS 4609 (0x1201) 0x90 PGS deu (German) 397,330 18 873167 5352
00003.M2TS 4610 (0x1202) 0x90 PGS spa (Spanish) 397,330 16 800205 4959[/code]
<---- END FORUMS PASTE ---->

QUICK SUMMARY:

Disc Title:
Disc Size: 47608837092 bytes
Protection: AACS
BD-Java: No
Playlist: 00003.MPLS
Size: 485425152 bytes
Length: 0:06:37
Total Bitrate: 9,77 Mbps
Video: MPEG-2 Video / 9000 kbps / 480i / 29,970 fps / 16:9
Audio: English / Dolby Digital Audio / 2.0 / 48 kHz / 192 kbps / DN -4dB
Subtitle: French / 16,731 kbps
Subtitle: German / 17,576 kbps
Subtitle: Spanish / 16,108 kbps

********************
PLAYLIST: 00001.MPLS
********************

<--- BEGIN FORUMS PASTE --->
[code]Total Video
Title Codec Length Movie Size Disc Size Bitrate Bitrate Main Audio Track Secondary Audio Track
----- ------ ------- -------------- -------------- ------- ------- ------------------ ---------------------
00001.MPLS MPEG-2 0:04:04 298905600 47608837092 9,79 9,00 DD AC3 2.0 192Kbps[/code]
[code]DISC INFO:

Disc Title:
Disc Size: 47608837092 bytes
Protection: AACS
BD-Java: No
BDInfo: 0.5.3

PLAYLIST REPORT:

Name: 00001.MPLS
Length: 0:04:04 (h:m:s)
Size: 298905600 bytes
Total Bitrate: 9,79 Mbps

VIDEO:

Codec Bitrate Description
----- ------- -----------
MPEG-2 Video 9000 kbps 480i / 29,970 fps / 16:9

AUDIO:

Codec Language Bitrate Description
----- -------- ------- -----------
Dolby Digital Audio English 192 kbps 2.0 / 48 kHz / 192 kbps / DN -4dB

SUBTITLES:

Codec Language Bitrate Description
----- -------- ------- -----------
Presentation Graphics French 20,975 kbps
Presentation Graphics German 22,727 kbps
Presentation Graphics Spanish 20,822 kbps

FILES:

Name Time In Length Size Total Bitrate
---- ------- ------ ---- -------------
00001.M2TS 0:00:00.000 0:04:04.277 298905600 9789

CHAPTERS:

Number Time In Length Avg Video Rate Max 1-Sec Rate Max 1-Sec Time Max 5-Sec Rate Max 5-Sec Time Max 10Sec Rate Max 10Sec Time Avg Frame Size Max Frame Size Max Frame Time
------ ------- ------ -------------- -------------- -------------- -------------- -------------- -------------- -------------- -------------- -------------- --------------
1 0:00:00.000 0:04:04.277 9000 kbps 10195 kbps 00:00:49.682 9237 kbps 00:01:35.195 9126 kbps 00:02:34.254 37538 bytes 160984 bytes 00:01:34.094

STREAM DIAGNOSTICS:

File PID Type Codec Language Seconds Bitrate Bytes Packets
---- --- ---- ----- -------- -------------- -------------- ------------- -----
00001.M2TS 4113 (0x1011) 0x02 MPEG-2 244,211 9002 274812044 1498359
00001.M2TS 4352 (0x1100) 0x81 AC3 eng (English) 244,211 192 5862912 38170
00001.M2TS 4608 (0x1200) 0x90 PGS fra (French) 244,211 21 640450 3925
00001.M2TS 4609 (0x1201) 0x90 PGS deu (German) 244,211 23 693960 4218
00001.M2TS 4610 (0x1202) 0x90 PGS spa (Spanish) 244,211 21 635793 3902[/code]
<---- END FORUMS PASTE ---->

QUICK SUMMARY:

Disc Title:
Disc Size: 47608837092 bytes
Protection: AACS
BD-Java: No
Playlist: 00001.MPLS
Size: 298905600 bytes
Length: 0:04:04
Total Bitrate: 9,79 Mbps
Video: MPEG-2 Video / 9000 kbps / 480i / 29,970 fps / 16:9
Audio: English / Dolby Digital Audio / 2.0 / 48 kHz / 192 kbps / DN -4dB
Subtitle: French / 20,975 kbps
Subtitle: German / 22,727 kbps
Subtitle: Spanish / 20,822 kbps

********************
PLAYLIST: 00007.MPLS
********************

<--- BEGIN FORUMS PASTE --->
[code]Total Video
Title Codec Length Movie Size Disc Size Bitrate Bitrate Main Audio Track Secondary Audio Track
----- ------ ------- -------------- -------------- ------- ------- ------------------ ---------------------
00007.MPLS AVC 0:02:46 446306304 47608837092 21,40 19,97 DD AC3 2.0 224Kbps[/code]
[code]DISC INFO:

Disc Title:
Disc Size: 47608837092 bytes
Protection: AACS
BD-Java: No
BDInfo: 0.5.3

PLAYLIST REPORT:

Name: 00007.MPLS
Length: 0:02:46 (h:m:s)
Size: 446306304 bytes
Total Bitrate: 21,40 Mbps

VIDEO:

Codec Bitrate Description
----- ------- -----------
MPEG-4 AVC Video 19966 kbps 1080i / 29,970 fps / 16:9 / High Profile 4.1

AUDIO:

Codec Language Bitrate Description
----- -------- ------- -----------
Dolby Digital Audio German 224 kbps 2.0 / 48 kHz / 224 kbps
Dolby Digital Audio German 224 kbps 2.0 / 48 kHz / 224 kbps

SUBTITLES:

Codec Language Bitrate Description
----- -------- ------- -----------
Presentation Graphics English 0,319 kbps
Presentation Graphics French 0,319 kbps
Presentation Graphics Spanish 0,319 kbps

FILES:

Name Time In Length Size Total Bitrate
---- ------- ------ ---- -------------
00007.M2TS 0:00:00.000 0:02:46.866 446306304 21397

CHAPTERS:

Number Time In Length Avg Video Rate Max 1-Sec Rate Max 1-Sec Time Max 5-Sec Rate Max 5-Sec Time Max 10Sec Rate Max 10Sec Time Avg Frame Size Max Frame Size Max Frame Time
------ ------- ------ -------------- -------------- -------------- -------------- -------------- -------------- -------------- -------------- -------------- --------------
1 0:00:00.000 0:02:46.866 19966 kbps 20738 kbps 00:02:26.746 20147 kbps 00:02:22.742 20074 kbps 00:02:17.737 83276 bytes 175797 bytes 00:02:27.747

STREAM DIAGNOSTICS:

File PID Type Codec Language Seconds Bitrate Bytes Packets
---- --- ---- ----- -------- -------------- -------------- ------------- -----
00007.M2TS 4113 (0x1011) 0x1B AVC 166,767 19978 416464840 2266617
00007.M2TS 4352 (0x1100) 0x81 AC3 deu (German) 166,767 224 4672640 26075
00007.M2TS 4353 (0x1101) 0x81 AC3 deu (German) 166,767 224 4672640 26075
00007.M2TS 4608 (0x1200) 0x90 PGS eng (English) 166,767 0 6650 43
00007.M2TS 4609 (0x1201) 0x90 PGS fra (French) 166,767 0 6650 43
00007.M2TS 4610 (0x1202) 0x90 PGS spa (Spanish) 166,767 0 6650 43[/code]
<---- END FORUMS PASTE ---->

QUICK SUMMARY:

Disc Title:
Disc Size: 47608837092 bytes
Protection: AACS
BD-Java: No
Playlist: 00007.MPLS
Size: 446306304 bytes
Length: 0:02:46
Total Bitrate: 21,40 Mbps
Video: MPEG-4 AVC Video / 19966 kbps / 1080i / 29,970 fps / 16:9 / High Profile 4.1
Audio: German / Dolby Digital Audio / 2.0 / 48 kHz / 224 kbps
Audio: German / Dolby Digital Audio / 2.0 / 48 kHz / 224 kbps
Subtitle: English / 0,319 kbps
Subtitle: French / 0,319 kbps
Subtitle: Spanish / 0,319 kbps

********************
PLAYLIST: 00002.MPLS
********************

<--- BEGIN FORUMS PASTE --->
[code]Total Video
Title Codec Length Movie Size Disc Size Bitrate Bitrate Main Audio Track Secondary Audio Track
----- ------ ------- -------------- -------------- ------- ------- ------------------ ---------------------
00002.MPLS AVC 0:00:52 135665664 47608837092 20,84 19,89[/code]
[code]DISC INFO:

Disc Title:
Disc Size: 47608837092 bytes
Protection: AACS
BD-Java: No
BDInfo: 0.5.3

PLAYLIST REPORT:

Name: 00002.MPLS
Length: 0:00:52 (h:m:s)
Size: 135665664 bytes
Total Bitrate: 20,84 Mbps

VIDEO:

Codec Bitrate Description
----- ------- -----------
MPEG-4 AVC Video 19892 kbps 1080i / 29,970 fps / 16:9 / High Profile 4.1

FILES:

Name Time In Length Size Total Bitrate
---- ------- ------ ---- -------------
00002.M2TS 0:00:00.000 0:00:52.085 135665664 20837

CHAPTERS:

Number Time In Length Avg Video Rate Max 1-Sec Rate Max 1-Sec Time Max 5-Sec Rate Max 5-Sec Time Max 10Sec Rate Max 10Sec Time Avg Frame Size Max Frame Size Max Frame Time
------ ------- ------ -------------- -------------- -------------- -------------- -------------- -------------- -------------- -------------- -------------- --------------
1 0:00:00.000 0:00:52.085 19892 kbps 21909 kbps 00:00:12.846 20382 kbps 00:00:08.842 20191 kbps 00:00:03.837 82966 bytes 288840 bytes 00:00:27.627

STREAM DIAGNOSTICS:

File PID Type Codec Language Seconds Bitrate Bytes Packets
---- --- ---- ----- -------- -------------- -------------- ------------- -----
00002.M2TS 4113 (0x1011) 0x1B AVC 51,985 19930 129509699 704847[/code]
<---- END FORUMS PASTE ---->

QUICK SUMMARY:

Disc Title:
Disc Size: 47608837092 bytes
Protection: AACS
BD-Java: No
Playlist: 00002.MPLS
Size: 135665664 bytes
Length: 0:00:52
Total Bitrate: 20,84 Mbps
Video: MPEG-4 AVC Video / 19892 kbps / 1080i / 29,970 fps / 16:9 / High Profile 4.1


 ·  , , FAQ-
:  [ 27--2011 21:10 ]

  

.torrent

.torrent 227 KB


: 44.34 GB
(hash) : 70005a0fb03dfa9d07980048f9aa6548d312ddcc
··
...

Mozart - Die Zauberflote . !

!