Mozart - Cosi Fan Tutte - torrent

, , - AdBlock. #!


44.35 GB   |    :  5 11    |    .torrent :  118    |   
1  
   
...
 

L


Mozart - Cosi Fan Tutte / -

: 2009

: Opera
: 188
: (PGS): English, French, German, Italian, Japaneses
: , , , , , ,
:
:
()
( -)
, ()
, , ()
, , ( )
, ( )
: 1790 .
: .
: , "", 26 1790 .
a , . , - , . - . , , ?, . , - - - - . , , . . . , , - - . , , . , , . , . : , . . . , - , - , - .
, , II. , , . , , . .
. , , ( II, 3), , cosi fan tutte ( ).
I
1. XVIII . - . , , , : , . ( : ,/ ,/ ,/ , , 3, II , , , delle femmine degli amanti . ..). , . ( 225 , ). : , , , , . , , , ( !).
2 . . , : , , . . , : , , . , . . . , (Di scrivermi ogni giorno ?). , , . (Soave il vento ). , . , , , .
3 . , . , , , . , Smanie implacabili ( ). , , . ! ! , , , , , , : , , . . .
. . , , . . , , , , . . Come scoglio ( ) . , . , , , . , . . ( ) , , . , , , , , .
4 . , . . , , , () - . (, ). , , , . , : . , , . ( ) , , ! . , ( ) , , .
II
1. , , . , . , . , : , . , . ( , ). ( , ). , , .
2 , . , ; . , , , . , , . , , , , . . ; . , - , Per pieta ben mio perdona ( , ). , , . , . , , , , , , , , .

3 . , , , , . , , . , . , . . , , . , , . . , . . , , , Cosi fan tutte !. : Cosi fan tutte. , , .
4. , , . ( ) , , . (), .
, , , , ; () . . . , ! , . , . ( ), , , . . , , . , : , , . .


Cisco .

: Blu-ray
/: BDMV
: MPEG-2 Video / 23867 kbps / 1080i / 29.970 fps / 16:9
:DTS-HD Master Audio Italian / 3867 kbps / 5.0 / 48 kHz / 3867 kbps / 24-bit (DTS Core: 5.0 / 48 kHz / 1509 kbps / 24-bit)
2:LPCM Audio Italian / 2304 kbps / 2.0 / 48 kHz / 2304 kbps / 24-bit
Disc Title: Mozart Cosi fan tutte 2009 1080i Bluray MPEG2 DTSHD MA 5.1
Disc Size: 47617708748 bytes
Protection: AACS
BD-Java: Yes

Notes:

BDINFO HOME AND REPORTS SUBMISSION:
Cinema Squid
http://www.cinemasquid.com/Tools.aspx

INCLUDES FORUMS REPORT FOR:
Unofficial Blu-ray Audio and Video Specifications Thread
http://www.avsforum.com/avs-vb/showthread.php?t=760714
http://forum.blu-ray.com/showthread.php?t=3338

********************
PLAYLIST: 00005.MPLS
********************

<--- BEGIN SUMMARY PASTE --->
[code]Total Video
Title Codec Length Movie Size Disc Size Bitrate Bitrate Main Audio Track Secondary Audio Track
----- ------ ------- -------------- -------------- ------- ------- ------------------ ---------------------
00005.MPLS MPEG-2 1:39:36 23781396480 47617708748 31,83 23,87 DTS-HD Master 5.0 3867Kbps (48kHz/24-bit) LPCM 2.0 2304Kbps (48kHz/24-bit)
<---- END SUMMARY PASTE ---->

<--- BEGIN DETAILS PASTE --->
[code]DISC INFO:

Disc Title: Mozart Cosi fan tutte 2009 1080i Bluray MPEG2 DTSHD MA 5.1
Disc Size: 47617708748 bytes
Protection: AACS
BD-Java: Yes

PLAYLIST REPORT:

Name: 00005.MPLS
Size: 23781396480 bytes
Length: 1:39:36 (h:m:s)
Total Bitrate: 31,83 Mbps
Description:

VIDEO:

Codec Bitrate Description
----- ------- -----------
MPEG-2 Video 23867 kbps 1080i / 29,970 fps / 16:9

AUDIO:

Codec Language Bitrate Description
----- -------- ------- -----------
DTS-HD Master Audio Italian 3867 kbps 5.0 / 48 kHz / 3867 kbps / 24-bit (DTS Core: 5.0 / 48 kHz / 1536 kbps / 24-bit)
LPCM Audio Italian 2304 kbps 2.0 / 48 kHz / 2304 kbps / 24-bit

SUBTITLES:

Codec Language Bitrate Description
----- -------- ------- -----------
Presentation Graphics English 18,558 kbps
Presentation Graphics French 20,920 kbps
Presentation Graphics German 19,973 kbps
Presentation Graphics Italian 18,760 kbps
Presentation Graphics Japanese 13,159 kbps
Presentation Graphics Spanish 20,135 kbps

FILES:

Name Time In Length Size Total Bitrate
---- ------- ------ ---- -------------
00005.M2TS 0:00:00.000 1:39:36.470 23781396480 31833

CHAPTERS:

Number Time In Length Avg Video Rate Max 1-Sec Rate Max 1-Sec Time Max 5-Sec Rate Max 5-Sec Time Max 10Sec Rate Max 10Sec Time Avg Frame Size Max Frame Size Max Frame Time
------ ------- ------ -------------- -------------- -------------- -------------- -------------- -------------- -------------- -------------- -------------- --------------
1 0:00:00.000 0:02:38.958 23874 kbps 27932 kbps 00:01:06.332 25512 kbps 00:01:14.140 25219 kbps 00:01:14.140 99552 bytes 453335 bytes 00:02:32.385
2 0:02:38.958 0:04:08.214 24482 kbps 29274 kbps 00:04:44.350 26309 kbps 00:03:54.634 26000 kbps 00:03:48.161 102110 bytes 465342 bytes 00:05:52.585
3 0:06:47.173 0:01:07.200 24803 kbps 28962 kbps 00:07:21.574 25826 kbps 00:07:21.474 25533 kbps 00:07:21.474 103448 bytes 466394 bytes 00:07:25.144
4 0:07:54.373 0:03:01.114 23573 kbps 29957 kbps 00:08:13.292 27237 kbps 00:08:13.292 26880 kbps 00:08:13.359 98321 bytes 481394 bytes 00:08:19.465
5 0:10:55.488 0:00:29.696 23449 kbps 25543 kbps 00:11:13.472 24104 kbps 00:11:16.175 23973 kbps 00:11:10.736 97801 bytes 401595 bytes 00:10:56.022
6 0:11:25.184 0:03:26.172 23614 kbps 27128 kbps 00:13:11.891 25040 kbps 00:14:42.948 24627 kbps 00:11:50.609 98492 bytes 427163 bytes 00:12:00.186
7 0:14:51.357 0:01:07.467 22284 kbps 25651 kbps 00:15:16.882 23962 kbps 00:15:14.647 23215 kbps 00:15:14.747 92941 bytes 377492 bytes 00:15:14.780
8 0:15:58.824 0:02:57.477 23770 kbps 28097 kbps 00:17:39.558 26025 kbps 00:17:39.458 25702 kbps 00:17:38.791 99140 bytes 495047 bytes 00:17:52.704
9 0:18:56.301 0:03:23.202 23964 kbps 28239 kbps 00:20:38.971 25813 kbps 00:21:13.272 25565 kbps 00:21:12.938 99948 bytes 480035 bytes 00:21:15.540
10 0:22:19.504 0:04:54.794 23035 kbps 27884 kbps 00:23:18.397 25409 kbps 00:24:04.743 25010 kbps 00:24:03.842 96076 bytes 464165 bytes 00:23:18.463
11 0:27:14.299 0:01:32.692 24353 kbps 28903 kbps 00:27:25.877 26038 kbps 00:27:33.551 25832 kbps 00:27:43.561 101572 bytes 501072 bytes 00:27:50.101
12 0:28:46.991 0:03:16.229 23054 kbps 28621 kbps 00:31:48.773 26232 kbps 00:31:20.545 25109 kbps 00:31:21.946 96156 bytes 447310 bytes 00:31:49.741
13 0:32:03.221 0:01:36.463 23423 kbps 26591 kbps 00:33:08.453 24270 kbps 00:32:25.009 24200 kbps 00:33:21.566 97694 bytes 391839 bytes 00:32:29.580
14 0:33:39.684 0:08:15.561 23818 kbps 28890 kbps 00:40:24.255 26477 kbps 00:40:20.251 26033 kbps 00:40:16.981 99343 bytes 501033 bytes 00:40:22.219
15 0:41:55.246 0:04:26.799 24700 kbps 28973 kbps 00:44:50.187 26613 kbps 00:45:57.020 26244 kbps 00:45:04.435 103018 bytes 489117 bytes 00:44:44.181
16 0:46:22.045 0:03:26.940 24776 kbps 29030 kbps 00:47:32.482 26353 kbps 00:47:53.203 25849 kbps 00:47:30.347 103337 bytes 451537 bytes 00:47:15.299
17 0:49:48.986 0:01:26.019 24400 kbps 28120 kbps 00:50:04.267 26006 kbps 00:50:09.106 25679 kbps 00:50:04.768 101768 bytes 473046 bytes 00:50:09.139
18 0:51:15.005 0:02:13.399 24336 kbps 27383 kbps 00:52:26.309 25622 kbps 00:52:26.209 25280 kbps 00:52:23.840 101503 bytes 436449 bytes 00:51:42.099
19 0:53:28.405 0:01:45.305 24412 kbps 28825 kbps 00:54:29.766 25985 kbps 00:54:01.605 25334 kbps 00:54:23.360 101820 bytes 488017 bytes 00:54:33.336
20 0:55:13.710 0:02:49.802 24339 kbps 28830 kbps 00:57:55.905 26364 kbps 00:57:18.835 25672 kbps 00:57:13.830 101515 bytes 461857 bytes 00:57:57.740
21 0:58:03.513 0:03:46.459 24100 kbps 29655 kbps 00:58:10.386 26178 kbps 00:59:01.804 25601 kbps 00:59:01.804 100518 bytes 507222 bytes 00:59:06.175
22 1:01:49.972 0:01:22.649 24308 kbps 27596 kbps 01:02:49.098 25365 kbps 01:02:47.029 25118 kbps 01:02:27.944 101385 bytes 442236 bytes 01:02:22.739
23 1:03:12.622 0:06:17.577 24600 kbps 28566 kbps 01:08:43.786 26457 kbps 01:08:43.119 26411 kbps 01:08:37.880 102602 bytes 471834 bytes 01:08:52.094
24 1:09:30.199 0:02:24.978 24200 kbps 28223 kbps 01:10:16.912 25579 kbps 01:10:19.481 25378 kbps 01:10:16.912 100934 bytes 450404 bytes 01:10:40.336
25 1:11:55.177 0:01:03.430 24385 kbps 28755 kbps 01:12:32.047 25697 kbps 01:12:50.966 25079 kbps 01:12:48.564 101706 bytes 487059 bytes 01:12:53.736
26 1:12:58.607 0:00:34.701 24535 kbps 27993 kbps 01:13:08.083 25379 kbps 01:13:11.587 25065 kbps 01:13:12.621 102330 bytes 437397 bytes 01:13:32.775
27 1:13:33.308 0:01:50.777 24936 kbps 29407 kbps 01:14:22.991 26995 kbps 01:14:22.958 26480 kbps 01:14:22.991 104003 bytes 489205 bytes 01:14:27.496
28 1:15:24.086 0:03:53.166 24140 kbps 28495 kbps 01:16:05.694 25912 kbps 01:15:42.704 25300 kbps 01:16:58.146 100682 bytes 478719 bytes 01:16:40.896
29 1:19:17.252 0:03:28.508 24061 kbps 28692 kbps 01:19:59.394 26480 kbps 01:19:56.224 25750 kbps 01:19:50.819 100356 bytes 492784 bytes 01:19:35.137
30 1:22:45.760 0:03:34.447 23327 kbps 28045 kbps 01:26:12.100 26348 kbps 01:26:12.200 25435 kbps 01:26:10.198 97295 bytes 486457 bytes 01:22:47.696
31 1:26:20.208 0:04:35.875 23658 kbps 29144 kbps 01:30:20.681 25900 kbps 01:27:55.803 25419 kbps 01:27:55.103 98675 bytes 484148 bytes 01:27:58.172
32 1:30:56.083 0:01:55.448 24850 kbps 30102 kbps 01:31:17.638 27052 kbps 01:31:42.630 26686 kbps 01:31:37.625 103645 bytes 512161 bytes 01:32:33.414
33 1:32:51.532 0:05:54.454 24705 kbps 29786 kbps 01:37:10.024 27660 kbps 01:37:06.120 26508 kbps 01:37:03.517 103042 bytes 500939 bytes 01:35:53.013
34 1:38:45.986 0:00:02.001 911 kbps 1261 kbps 01:38:46.186 0 kbps 00:00:00.000 0 kbps 00:00:00.000 3800 bytes 44698 bytes 01:38:46.320
35 1:38:47.988 0:00:48.481 1021 kbps 1261 kbps 01:38:47.988 1051 kbps 01:38:47.988 1051 kbps 01:38:48.022 4259 bytes 44698 bytes 01:38:48.055

STREAM DIAGNOSTICS:

File PID Type Codec Language Seconds Bitrate Bytes Packets
---- --- ---- ----- -------- -------------- -------------- ------------- -----
00005.M2TS 4113 (0x1011) 0x02 MPEG-2 5976,471 23867 17830155120 97007096
00005.M2TS 4352 (0x1100) 0x80 LPCM ita (Italian) 5976,471 2291 1711295952 9480892
00005.M2TS 4353 (0x1101) 0x86 DTS-HD MA ita (Italian) 5976,471 3867 2889188016 16625958
00005.M2TS 4608 (0x1200) 0x90 PGS ita (Italian) 5976,471 19 14014567 81005
00005.M2TS 4609 (0x1201) 0x90 PGS eng (English) 5976,471 19 13863771 80175
00005.M2TS 4610 (0x1202) 0x90 PGS deu (German) 5976,471 20 14921173 85918
00005.M2TS 4611 (0x1203) 0x90 PGS fra (French) 5976,471 21 15628630 89763
00005.M2TS 4612 (0x1204) 0x90 PGS spa (Spanish) 5976,471 20 15042134 86589
00005.M2TS 4613 (0x1205) 0x90 PGS jpn (Japanese) 5976,471 13 9830818 58254[/code]
<---- END DETAILS PASTE ---->

********************
PLAYLIST: 01005.MPLS
********************

<--- BEGIN SUMMARY PASTE --->
[code]Total Video
Title Codec Length Movie Size Disc Size Bitrate Bitrate Main Audio Track Secondary Audio Track
----- ------ ------- -------------- -------------- ------- ------- ------------------ ---------------------
01005.MPLS MPEG-2 1:39:36 23781396480 47617708748 31,83 23,87 DTS-HD Master 5.0 3867Kbps (48kHz/24-bit) LPCM 2.0 2304Kbps (48kHz/24-bit)[/code]
<---- END SUMMARY PASTE ---->

<--- BEGIN DETAILS PASTE --->
[code]DISC INFO:

Disc Title: Mozart Cosi fan tutte 2009 1080i Bluray MPEG2 DTSHD MA 5.1
Disc Size: 47617708748 bytes
Protection: AACS
BD-Java: Yes

PLAYLIST REPORT:

Name: 01005.MPLS
Size: 23781396480 bytes
Length: 1:39:36 (h:m:s)
Total Bitrate: 31,83 Mbps
Description:

VIDEO:

Codec Bitrate Description
----- ------- -----------
MPEG-2 Video 23867 kbps 1080i / 29,970 fps / 16:9

AUDIO:

Codec Language Bitrate Description
----- -------- ------- -----------
DTS-HD Master Audio Italian 3867 kbps 5.0 / 48 kHz / 3867 kbps / 24-bit (DTS Core: 5.0 / 48 kHz / 1536 kbps / 24-bit)
LPCM Audio Italian 2304 kbps 2.0 / 48 kHz / 2304 kbps / 24-bit

SUBTITLES:

Codec Language Bitrate Description
----- -------- ------- -----------
Presentation Graphics English 18,558 kbps
Presentation Graphics French 20,920 kbps
Presentation Graphics German 19,973 kbps
Presentation Graphics Italian 18,760 kbps
Presentation Graphics Japanese 13,159 kbps
Presentation Graphics Spanish 20,135 kbps

FILES:

Name Time In Length Size Total Bitrate
---- ------- ------ ---- -------------
00005.M2TS 0:00:00.000 1:39:36.470 23781396480 31833

CHAPTERS:

Number Time In Length Avg Video Rate Max 1-Sec Rate Max 1-Sec Time Max 5-Sec Rate Max 5-Sec Time Max 10Sec Rate Max 10Sec Time Avg Frame Size Max Frame Size Max Frame Time
------ ------- ------ -------------- -------------- -------------- -------------- -------------- -------------- -------------- -------------- -------------- --------------
1 0:00:00.000 0:02:38.958 23874 kbps 27932 kbps 00:01:06.332 25512 kbps 00:01:14.140 25219 kbps 00:01:14.140 99552 bytes 453335 bytes 00:02:32.385
2 0:02:38.958 0:04:08.214 24482 kbps 29274 kbps 00:04:44.350 26309 kbps 00:03:54.634 26000 kbps 00:03:48.161 102110 bytes 465342 bytes 00:05:52.585
3 0:06:47.173 0:01:07.200 24803 kbps 28962 kbps 00:07:21.574 25826 kbps 00:07:21.474 25533 kbps 00:07:21.474 103448 bytes 466394 bytes 00:07:25.144
4 0:07:54.373 0:03:01.114 23573 kbps 29957 kbps 00:08:13.292 27237 kbps 00:08:13.292 26880 kbps 00:08:13.359 98321 bytes 481394 bytes 00:08:19.465
5 0:10:55.488 0:00:29.696 23449 kbps 25543 kbps 00:11:13.472 24104 kbps 00:11:16.175 23973 kbps 00:11:10.736 97801 bytes 401595 bytes 00:10:56.022
6 0:11:25.184 0:03:26.172 23614 kbps 27128 kbps 00:13:11.891 25040 kbps 00:14:42.948 24627 kbps 00:11:50.609 98492 bytes 427163 bytes 00:12:00.186
7 0:14:51.357 0:01:07.467 22284 kbps 25651 kbps 00:15:16.882 23962 kbps 00:15:14.647 23215 kbps 00:15:14.747 92941 bytes 377492 bytes 00:15:14.780
8 0:15:58.824 0:02:57.477 23770 kbps 28097 kbps 00:17:39.558 26025 kbps 00:17:39.458 25702 kbps 00:17:38.791 99140 bytes 495047 bytes 00:17:52.704
9 0:18:56.301 0:03:23.202 23964 kbps 28239 kbps 00:20:38.971 25813 kbps 00:21:13.272 25565 kbps 00:21:12.938 99948 bytes 480035 bytes 00:21:15.540
10 0:22:19.504 0:04:54.794 23035 kbps 27884 kbps 00:23:18.397 25409 kbps 00:24:04.743 25010 kbps 00:24:03.842 96076 bytes 464165 bytes 00:23:18.463
11 0:27:14.299 0:01:32.692 24353 kbps 28903 kbps 00:27:25.877 26038 kbps 00:27:33.551 25832 kbps 00:27:43.561 101572 bytes 501072 bytes 00:27:50.101
12 0:28:46.991 0:03:16.229 23054 kbps 28621 kbps 00:31:48.773 26232 kbps 00:31:20.545 25109 kbps 00:31:21.946 96156 bytes 447310 bytes 00:31:49.741
13 0:32:03.221 0:01:36.463 23423 kbps 26591 kbps 00:33:08.453 24270 kbps 00:32:25.009 24200 kbps 00:33:21.566 97694 bytes 391839 bytes 00:32:29.580
14 0:33:39.684 0:08:15.561 23818 kbps 28890 kbps 00:40:24.255 26477 kbps 00:40:20.251 26033 kbps 00:40:16.981 99343 bytes 501033 bytes 00:40:22.219
15 0:41:55.246 0:04:26.799 24700 kbps 28973 kbps 00:44:50.187 26613 kbps 00:45:57.020 26244 kbps 00:45:04.435 103018 bytes 489117 bytes 00:44:44.181
16 0:46:22.045 0:03:26.940 24776 kbps 29030 kbps 00:47:32.482 26353 kbps 00:47:53.203 25849 kbps 00:47:30.347 103337 bytes 451537 bytes 00:47:15.299
17 0:49:48.986 0:01:26.019 24400 kbps 28120 kbps 00:50:04.267 26006 kbps 00:50:09.106 25679 kbps 00:50:04.768 101768 bytes 473046 bytes 00:50:09.139
18 0:51:15.005 0:02:13.399 24336 kbps 27383 kbps 00:52:26.309 25622 kbps 00:52:26.209 25280 kbps 00:52:23.840 101503 bytes 436449 bytes 00:51:42.099
19 0:53:28.405 0:01:45.305 24412 kbps 28825 kbps 00:54:29.766 25985 kbps 00:54:01.605 25334 kbps 00:54:23.360 101820 bytes 488017 bytes 00:54:33.336
20 0:55:13.710 0:02:49.802 24339 kbps 28830 kbps 00:57:55.905 26364 kbps 00:57:18.835 25672 kbps 00:57:13.830 101515 bytes 461857 bytes 00:57:57.740
21 0:58:03.513 0:03:46.459 24100 kbps 29655 kbps 00:58:10.386 26178 kbps 00:59:01.804 25601 kbps 00:59:01.804 100518 bytes 507222 bytes 00:59:06.175
22 1:01:49.972 0:01:22.649 24308 kbps 27596 kbps 01:02:49.098 25365 kbps 01:02:47.029 25118 kbps 01:02:27.944 101385 bytes 442236 bytes 01:02:22.739
23 1:03:12.622 0:06:17.577 24600 kbps 28566 kbps 01:08:43.786 26457 kbps 01:08:43.119 26411 kbps 01:08:37.880 102602 bytes 471834 bytes 01:08:52.094
24 1:09:30.199 0:02:24.978 24200 kbps 28223 kbps 01:10:16.912 25579 kbps 01:10:19.481 25378 kbps 01:10:16.912 100934 bytes 450404 bytes 01:10:40.336
25 1:11:55.177 0:01:03.430 24385 kbps 28755 kbps 01:12:32.047 25697 kbps 01:12:50.966 25079 kbps 01:12:48.564 101706 bytes 487059 bytes 01:12:53.736
26 1:12:58.607 0:00:34.701 24535 kbps 27993 kbps 01:13:08.083 25379 kbps 01:13:11.587 25065 kbps 01:13:12.621 102330 bytes 437397 bytes 01:13:32.775
27 1:13:33.308 0:01:50.777 24936 kbps 29407 kbps 01:14:22.991 26995 kbps 01:14:22.958 26480 kbps 01:14:22.991 104003 bytes 489205 bytes 01:14:27.496
28 1:15:24.086 0:03:53.166 24140 kbps 28495 kbps 01:16:05.694 25912 kbps 01:15:42.704 25300 kbps 01:16:58.146 100682 bytes 478719 bytes 01:16:40.896
29 1:19:17.252 0:03:28.508 24061 kbps 28692 kbps 01:19:59.394 26480 kbps 01:19:56.224 25750 kbps 01:19:50.819 100356 bytes 492784 bytes 01:19:35.137
30 1:22:45.760 0:03:34.447 23327 kbps 28045 kbps 01:26:12.100 26348 kbps 01:26:12.200 25435 kbps 01:26:10.198 97295 bytes 486457 bytes 01:22:47.696
31 1:26:20.208 0:04:35.875 23658 kbps 29144 kbps 01:30:20.681 25900 kbps 01:27:55.803 25419 kbps 01:27:55.103 98675 bytes 484148 bytes 01:27:58.172
32 1:30:56.083 0:01:55.448 24850 kbps 30102 kbps 01:31:17.638 27052 kbps 01:31:42.630 26686 kbps 01:31:37.625 103645 bytes 512161 bytes 01:32:33.414
33 1:32:51.532 0:05:54.454 24705 kbps 29786 kbps 01:37:10.024 27660 kbps 01:37:06.120 26508 kbps 01:37:03.517 103042 bytes 500939 bytes 01:35:53.013
34 1:38:45.986 0:00:02.001 911 kbps 1261 kbps 01:38:46.186 0 kbps 00:00:00.000 0 kbps 00:00:00.000 3800 bytes 44698 bytes 01:38:46.320
35 1:38:47.988 0:00:48.481 1021 kbps 1261 kbps 01:38:47.988 1051 kbps 01:38:47.988 1051 kbps 01:38:48.022 4259 bytes 44698 bytes 01:38:48.055

STREAM DIAGNOSTICS:

File PID Type Codec Language Seconds Bitrate Bytes Packets
---- --- ---- ----- -------- -------------- -------------- ------------- -----
00005.M2TS 4113 (0x1011) 0x02 MPEG-2 5976,471 23867 17830155120 97007096
00005.M2TS 4352 (0x1100) 0x80 LPCM ita (Italian) 5976,471 2291 1711295952 9480892
00005.M2TS 4353 (0x1101) 0x86 DTS-HD MA ita (Italian) 5976,471 3867 2889188016 16625958
00005.M2TS 4608 (0x1200) 0x90 PGS ita (Italian) 5976,471 19 14014567 81005
00005.M2TS 4609 (0x1201) 0x90 PGS eng (English) 5976,471 19 13863771 80175
00005.M2TS 4610 (0x1202) 0x90 PGS deu (German) 5976,471 20 14921173 85918
00005.M2TS 4611 (0x1203) 0x90 PGS fra (French) 5976,471 21 15628630 89763
00005.M2TS 4612 (0x1204) 0x90 PGS spa (Spanish) 5976,471 20 15042134 86589
00005.M2TS 4613 (0x1205) 0x90 PGS jpn (Japanese) 5976,471 13 9830818 58254[/code]
<---- END DETAILS PASTE ---->

********************
PLAYLIST: 00004.MPLS
********************

<--- BEGIN SUMMARY PASTE --->
[code]Total Video
Title Codec Length Movie Size Disc Size Bitrate Bitrate Main Audio Track Secondary Audio Track
----- ------ ------- -------------- -------------- ------- ------- ------------------ ---------------------
00004.MPLS MPEG-2 1:32:40 22167410688 47617708748 31,89 23,93 DTS-HD Master 5.0 3837Kbps (48kHz/24-bit) LPCM 2.0 2304Kbps (48kHz/24-bit)[/code]
<---- END SUMMARY PASTE ---->

<--- BEGIN DETAILS PASTE --->
[code]DISC INFO:

Disc Title: Mozart Cosi fan tutte 2009 1080i Bluray MPEG2 DTSHD MA 5.1
Disc Size: 47617708748 bytes
Protection: AACS
BD-Java: Yes

PLAYLIST REPORT:

Name: 00004.MPLS
Size: 22167410688 bytes
Length: 1:32:40 (h:m:s)
Total Bitrate: 31,89 Mbps
Description:

VIDEO:

Codec Bitrate Description
----- ------- -----------
MPEG-2 Video 23932 kbps 1080i / 29,970 fps / 16:9

AUDIO:

Codec Language Bitrate Description
----- -------- ------- -----------
DTS-HD Master Audio Italian 3837 kbps 5.0 / 48 kHz / 3837 kbps / 24-bit (DTS Core: 5.0 / 48 kHz / 1536 kbps / 24-bit)
LPCM Audio Italian 2304 kbps 2.0 / 48 kHz / 2304 kbps / 24-bit

SUBTITLES:

Codec Language Bitrate Description
----- -------- ------- -----------
Presentation Graphics English 19,721 kbps
Presentation Graphics French 22,079 kbps
Presentation Graphics German 21,473 kbps
Presentation Graphics Italian 20,159 kbps
Presentation Graphics Japanese 13,690 kbps
Presentation Graphics Spanish 22,170 kbps

FILES:

Name Time In Length Size Total Bitrate
---- ------- ------ ---- -------------
00004.M2TS 0:00:00.000 1:32:40.421 22167410688 31893

CHAPTERS:

Number Time In Length Avg Video Rate Max 1-Sec Rate Max 1-Sec Time Max 5-Sec Rate Max 5-Sec Time Max 10Sec Rate Max 10Sec Time Avg Frame Size Max Frame Size Max Frame Time
------ ------- ------ -------------- -------------- -------------- -------------- -------------- -------------- -------------- -------------- -------------- --------------
1 0:00:00.000 0:00:49.649 23732 kbps 28047 kbps 00:00:12.445 25595 kbps 00:00:12.345 25137 kbps 00:00:07.340 98915 bytes 454663 bytes 00:00:15.615
2 0:00:49.649 0:04:24.831 24254 kbps 29463 kbps 00:01:46.606 27599 kbps 00:01:43.069 27356 kbps 00:01:40.200 101158 bytes 467865 bytes 00:03:37.817
3 0:05:14.480 0:01:55.815 23436 kbps 27870 kbps 00:06:52.145 25346 kbps 00:06:49.942 24605 kbps 00:05:55.722 97749 bytes 466443 bytes 00:06:52.178
4 0:07:10.296 0:01:10.270 24515 kbps 28749 kbps 00:07:21.441 25959 kbps 00:07:33.853 25491 kbps 00:07:31.451 102247 bytes 468469 bytes 00:07:22.375
5 0:08:20.566 0:01:09.803 24213 kbps 28528 kbps 00:08:30.643 25961 kbps 00:08:30.643 25286 kbps 00:08:28.474 100989 bytes 464435 bytes 00:09:01.774
6 0:09:30.369 0:01:49.642 23984 kbps 28647 kbps 00:11:15.274 26199 kbps 00:11:11.837 25731 kbps 00:11:06.699 100034 bytes 466344 bytes 00:09:57.296
7 0:11:20.012 0:02:21.140 23963 kbps 28495 kbps 00:11:38.097 25780 kbps 00:11:37.663 24958 kbps 00:11:35.294 99946 bytes 466866 bytes 00:11:22.014
8 0:13:41.153 0:04:31.304 24040 kbps 28280 kbps 00:18:01.280 26591 kbps 00:18:00.646 25621 kbps 00:17:54.873 100268 bytes 446895 bytes 00:14:12.618
9 0:18:12.458 0:01:03.930 24112 kbps 27681 kbps 00:18:25.104 25295 kbps 00:18:35.647 24934 kbps 00:18:33.479 100568 bytes 436284 bytes 00:18:49.094
10 0:19:16.388 0:00:38.338 24608 kbps 28647 kbps 00:19:53.325 26371 kbps 00:19:38.944 25845 kbps 00:19:39.111 102636 bytes 476160 bytes 00:19:42.614
11 0:19:54.726 0:00:58.091 23969 kbps 26842 kbps 00:19:56.328 25012 kbps 00:20:13.779 24603 kbps 00:19:55.127 99970 bytes 442685 bytes 00:19:56.895
12 0:20:52.818 0:04:22.195 23579 kbps 27993 kbps 00:23:05.384 25553 kbps 00:22:24.076 25277 kbps 00:22:20.305 98342 bytes 454351 bytes 00:21:50.575
13 0:25:15.013 0:00:55.455 23144 kbps 26267 kbps 00:25:55.887 24363 kbps 00:25:37.102 24145 kbps 00:25:49.281 96529 bytes 416601 bytes 00:25:56.454
14 0:26:10.468 0:01:33.359 24120 kbps 28905 kbps 00:27:05.523 26435 kbps 00:27:04.522 25443 kbps 00:26:25.350 100602 bytes 421857 bytes 00:27:08.660
15 0:27:43.828 0:00:26.693 24242 kbps 27195 kbps 00:28:01.780 25273 kbps 00:27:59.778 24998 kbps 00:27:52.504 101110 bytes 419715 bytes 00:27:55.573
16 0:28:10.522 0:01:23.249 24519 kbps 28018 kbps 00:29:32.771 25590 kbps 00:28:45.190 25223 kbps 00:29:10.882 102266 bytes 447370 bytes 00:29:33.338
17 0:29:33.772 0:00:37.504 24447 kbps 27576 kbps 00:29:39.811 25346 kbps 00:29:35.840 25031 kbps 00:29:53.792 101964 bytes 448002 bytes 00:30:02.734
18 0:30:11.276 0:01:59.786 24032 kbps 27311 kbps 00:30:12.110 25540 kbps 00:30:11.543 25157 kbps 00:31:31.923 100234 bytes 455031 bytes 00:30:23.454
19 0:32:11.062 0:00:43.410 24353 kbps 26924 kbps 00:32:27.145 25082 kbps 00:32:22.840 24922 kbps 00:32:17.702 101572 bytes 386106 bytes 00:32:54.172
20 0:32:54.472 0:01:01.895 23920 kbps 28562 kbps 00:33:11.589 25403 kbps 00:32:58.743 24906 kbps 00:32:57.308 99766 bytes 443727 bytes 00:32:58.776
21 0:33:56.367 0:02:48.034 23363 kbps 26401 kbps 00:36:32.557 24381 kbps 00:36:31.122 24132 kbps 00:36:15.840 97442 bytes 406158 bytes 00:36:36.093
22 0:36:44.402 0:01:04.330 23927 kbps 26497 kbps 00:36:59.784 24695 kbps 00:37:43.361 24441 kbps 00:36:51.542 99795 bytes 391897 bytes 00:37:22.573
23 0:37:48.733 0:01:54.147 23914 kbps 28733 kbps 00:38:48.492 25495 kbps 00:38:44.922 24682 kbps 00:37:50.868 99740 bytes 430620 bytes 00:38:37.014
24 0:39:42.880 0:02:17.470 22390 kbps 26170 kbps 00:41:42.566 23684 kbps 00:40:28.192 23627 kbps 00:39:43.948 93385 bytes 390333 bytes 00:40:32.296
25 0:42:00.351 0:02:00.286 24049 kbps 28463 kbps 00:43:20.331 25642 kbps 00:42:26.277 25148 kbps 00:43:16.527 100305 bytes 425454 bytes 00:42:21.372
26 0:44:00.638 0:03:08.087 24251 kbps 29219 kbps 00:44:46.083 25842 kbps 00:44:44.682 25325 kbps 00:44:56.560 101146 bytes 463592 bytes 00:45:06.136
27 0:47:08.725 0:03:16.663 24135 kbps 29162 kbps 00:47:44.094 27270 kbps 00:47:43.994 26068 kbps 00:48:34.578 100664 bytes 493676 bytes 00:48:38.815
28 0:50:25.389 0:04:25.965 23223 kbps 28193 kbps 00:51:06.430 25982 kbps 00:51:05.996 25522 kbps 00:51:02.559 96859 bytes 448635 bytes 00:51:19.976
29 0:54:51.354 0:04:00.206 23077 kbps 29443 kbps 00:58:34.177 26242 kbps 00:58:34.177 25272 kbps 00:58:28.638 96251 bytes 516098 bytes 00:58:36.412
30 0:58:51.561 0:04:33.673 24103 kbps 30332 kbps 01:02:59.542 27074 kbps 01:03:16.459 26072 kbps 01:03:15.091 100528 bytes 441573 bytes 01:03:16.659
31 1:03:25.234 0:01:20.380 25103 kbps 29670 kbps 01:04:42.678 27294 kbps 01:04:40.543 27170 kbps 01:04:30.600 104702 bytes 500551 bytes 01:04:40.610
32 1:04:45.615 0:01:53.746 24231 kbps 29387 kbps 01:05:35.398 26919 kbps 01:05:31.460 26670 kbps 01:05:30.259 101065 bytes 484759 bytes 01:05:35.498
33 1:06:39.362 0:00:52.685 24495 kbps 28400 kbps 01:07:31.047 25873 kbps 01:07:27.043 25238 kbps 01:07:22.038 102166 bytes 431281 bytes 01:07:32.048
34 1:07:32.048 0:01:02.262 24012 kbps 27249 kbps 01:07:44.126 25247 kbps 01:07:44.593 24841 kbps 01:08:01.143 100150 bytes 448117 bytes 01:07:45.094
35 1:08:34.310 0:04:39.912 24046 kbps 27542 kbps 01:11:22.077 25761 kbps 01:10:14.043 25095 kbps 01:12:28.544 100292 bytes 426123 bytes 01:10:18.414
36 1:13:14.223 0:02:09.329 24923 kbps 29137 kbps 01:14:56.325 26669 kbps 01:14:25.961 26284 kbps 01:14:21.290 103951 bytes 484761 bytes 01:14:29.932
37 1:15:23.552 0:02:48.134 23580 kbps 27616 kbps 01:16:49.605 25437 kbps 01:16:46.902 25011 kbps 01:16:45.801 98348 bytes 428305 bytes 01:15:25.053
38 1:18:11.687 0:05:23.389 24794 kbps 29479 kbps 01:20:45.874 26961 kbps 01:23:26.201 26377 kbps 01:19:47.182 103411 bytes 496678 bytes 01:22:23.371
39 1:23:35.076 0:03:22.335 24831 kbps 30420 kbps 01:24:27.762 27159 kbps 01:24:09.944 26474 kbps 01:24:20.855 103564 bytes 488853 bytes 01:24:35.603
40 1:26:57.412 0:05:28.594 23950 kbps 29323 kbps 01:30:22.250 27224 kbps 01:27:21.736 26435 kbps 01:27:17.398 99893 bytes 501143 bytes 01:27:06.854
41 1:32:26.007 0:00:02.002 911 kbps 1261 kbps 01:32:26.207 0 kbps 00:00:00.000 0 kbps 00:00:00.000 3800 bytes 44698 bytes 01:32:26.340
42 1:32:28.009 0:00:12.412 1029 kbps 1261 kbps 01:32:28.009 1051 kbps 01:32:35.383 1051 kbps 01:32:28.042 4305 bytes 44698 bytes 01:32:28.075

STREAM DIAGNOSTICS:

File PID Type Codec Language Seconds Bitrate Bytes Packets
---- --- ---- ----- -------- -------------- -------------- ------------- -----
00004.M2TS 4113 (0x1011) 0x02 MPEG-2 5560,422 23932 16634154871 90499918
00004.M2TS 4352 (0x1100) 0x80 LPCM ita (Italian) 5560,422 2304 1601196728 8870910
00004.M2TS 4353 (0x1101) 0x86 DTS-HD MA ita (Italian) 5560,422 3837 2666815404 15356916
00004.M2TS 4608 (0x1200) 0x90 PGS ita (Italian) 5560,422 20 14011408 81088
00004.M2TS 4609 (0x1201) 0x90 PGS eng (English) 5560,422 20 13707464 79428
00004.M2TS 4610 (0x1202) 0x90 PGS deu (German) 5560,422 21 14924846 86034
00004.M2TS 4611 (0x1203) 0x90 PGS fra (French) 5560,422 22 15346386 88341
00004.M2TS 4612 (0x1204) 0x90 PGS spa (Spanish) 5560,422 22 15408983 88688
00004.M2TS 4613 (0x1205) 0x90 PGS jpn (Japanese) 5560,422 14 9515168 56630[/code]
<---- END DETAILS PASTE ---->

********************
PLAYLIST: 01004.MPLS
********************

<--- BEGIN SUMMARY PASTE --->
[code]Total Video
Title Codec Length Movie Size Disc Size Bitrate Bitrate Main Audio Track Secondary Audio Track
----- ------ ------- -------------- -------------- ------- ------- ------------------ ---------------------
01004.MPLS MPEG-2 1:32:40 22167410688 47617708748 31,89 23,93 DTS-HD Master 5.0 3837Kbps (48kHz/24-bit) LPCM 2.0 2304Kbps (48kHz/24-bit)[/code]
<---- END SUMMARY PASTE ---->

<--- BEGIN DETAILS PASTE --->
[code]DISC INFO:

Disc Title: Mozart Cosi fan tutte 2009 1080i Bluray MPEG2 DTSHD MA 5.1
Disc Size: 47617708748 bytes
Protection: AACS
BD-Java: Yes

PLAYLIST REPORT:

Name: 01004.MPLS
Size: 22167410688 bytes
Length: 1:32:40 (h:m:s)
Total Bitrate: 31,89 Mbps
Description:

VIDEO:

Codec Bitrate Description
----- ------- -----------
MPEG-2 Video 23932 kbps 1080i / 29,970 fps / 16:9

AUDIO:

Codec Language Bitrate Description
----- -------- ------- -----------
DTS-HD Master Audio Italian 3837 kbps 5.0 / 48 kHz / 3837 kbps / 24-bit (DTS Core: 5.0 / 48 kHz / 1536 kbps / 24-bit)
LPCM Audio Italian 2304 kbps 2.0 / 48 kHz / 2304 kbps / 24-bit

SUBTITLES:

Codec Language Bitrate Description
----- -------- ------- -----------
Presentation Graphics English 19,721 kbps
Presentation Graphics French 22,079 kbps
Presentation Graphics German 21,473 kbps
Presentation Graphics Italian 20,159 kbps
Presentation Graphics Japanese 13,690 kbps
Presentation Graphics Spanish 22,170 kbps

FILES:

Name Time In Length Size Total Bitrate
---- ------- ------ ---- -------------
00004.M2TS 0:00:00.000 1:32:40.421 22167410688 31893

CHAPTERS:

Number Time In Length Avg Video Rate Max 1-Sec Rate Max 1-Sec Time Max 5-Sec Rate Max 5-Sec Time Max 10Sec Rate Max 10Sec Time Avg Frame Size Max Frame Size Max Frame Time
------ ------- ------ -------------- -------------- -------------- -------------- -------------- -------------- -------------- -------------- -------------- --------------
1 0:00:00.000 0:00:49.649 23732 kbps 28047 kbps 00:00:12.445 25595 kbps 00:00:12.345 25137 kbps 00:00:07.340 98915 bytes 454663 bytes 00:00:15.615
2 0:00:49.649 0:04:24.831 24254 kbps 29463 kbps 00:01:46.606 27599 kbps 00:01:43.069 27356 kbps 00:01:40.200 101158 bytes 467865 bytes 00:03:37.817
3 0:05:14.480 0:01:55.815 23436 kbps 27870 kbps 00:06:52.145 25346 kbps 00:06:49.942 24605 kbps 00:05:55.722 97749 bytes 466443 bytes 00:06:52.178
4 0:07:10.296 0:01:10.270 24515 kbps 28749 kbps 00:07:21.441 25959 kbps 00:07:33.853 25491 kbps 00:07:31.451 102247 bytes 468469 bytes 00:07:22.375
5 0:08:20.566 0:01:09.803 24213 kbps 28528 kbps 00:08:30.643 25961 kbps 00:08:30.643 25286 kbps 00:08:28.474 100989 bytes 464435 bytes 00:09:01.774
6 0:09:30.369 0:01:49.642 23984 kbps 28647 kbps 00:11:15.274 26199 kbps 00:11:11.837 25731 kbps 00:11:06.699 100034 bytes 466344 bytes 00:09:57.296
7 0:11:20.012 0:02:21.140 23963 kbps 28495 kbps 00:11:38.097 25780 kbps 00:11:37.663 24958 kbps 00:11:35.294 99946 bytes 466866 bytes 00:11:22.014
8 0:13:41.153 0:04:31.304 24040 kbps 28280 kbps 00:18:01.280 26591 kbps 00:18:00.646 25621 kbps 00:17:54.873 100268 bytes 446895 bytes 00:14:12.618
9 0:18:12.458 0:01:03.930 24112 kbps 27681 kbps 00:18:25.104 25295 kbps 00:18:35.647 24934 kbps 00:18:33.479 100568 bytes 436284 bytes 00:18:49.094
10 0:19:16.388 0:00:38.338 24608 kbps 28647 kbps 00:19:53.325 26371 kbps 00:19:38.944 25845 kbps 00:19:39.111 102636 bytes 476160 bytes 00:19:42.614
11 0:19:54.726 0:00:58.091 23969 kbps 26842 kbps 00:19:56.328 25012 kbps 00:20:13.779 24603 kbps 00:19:55.127 99970 bytes 442685 bytes 00:19:56.895
12 0:20:52.818 0:04:22.195 23579 kbps 27993 kbps 00:23:05.384 25553 kbps 00:22:24.076 25277 kbps 00:22:20.305 98342 bytes 454351 bytes 00:21:50.575
13 0:25:15.013 0:00:55.455 23144 kbps 26267 kbps 00:25:55.887 24363 kbps 00:25:37.102 24145 kbps 00:25:49.281 96529 bytes 416601 bytes 00:25:56.454
14 0:26:10.468 0:01:33.359 24120 kbps 28905 kbps 00:27:05.523 26435 kbps 00:27:04.522 25443 kbps 00:26:25.350 100602 bytes 421857 bytes 00:27:08.660
15 0:27:43.828 0:00:26.693 24242 kbps 27195 kbps 00:28:01.780 25273 kbps 00:27:59.778 24998 kbps 00:27:52.504 101110 bytes 419715 bytes 00:27:55.573
16 0:28:10.522 0:01:23.249 24519 kbps 28018 kbps 00:29:32.771 25590 kbps 00:28:45.190 25223 kbps 00:29:10.882 102266 bytes 447370 bytes 00:29:33.338
17 0:29:33.772 0:00:37.504 24447 kbps 27576 kbps 00:29:39.811 25346 kbps 00:29:35.840 25031 kbps 00:29:53.792 101964 bytes 448002 bytes 00:30:02.734
18 0:30:11.276 0:01:59.786 24032 kbps 27311 kbps 00:30:12.110 25540 kbps 00:30:11.543 25157 kbps 00:31:31.923 100234 bytes 455031 bytes 00:30:23.454
19 0:32:11.062 0:00:43.410 24353 kbps 26924 kbps 00:32:27.145 25082 kbps 00:32:22.840 24922 kbps 00:32:17.702 101572 bytes 386106 bytes 00:32:54.172
20 0:32:54.472 0:01:01.895 23920 kbps 28562 kbps 00:33:11.589 25403 kbps 00:32:58.743 24906 kbps 00:32:57.308 99766 bytes 443727 bytes 00:32:58.776
21 0:33:56.367 0:02:48.034 23363 kbps 26401 kbps 00:36:32.557 24381 kbps 00:36:31.122 24132 kbps 00:36:15.840 97442 bytes 406158 bytes 00:36:36.093
22 0:36:44.402 0:01:04.330 23927 kbps 26497 kbps 00:36:59.784 24695 kbps 00:37:43.361 24441 kbps 00:36:51.542 99795 bytes 391897 bytes 00:37:22.573
23 0:37:48.733 0:01:54.147 23914 kbps 28733 kbps 00:38:48.492 25495 kbps 00:38:44.922 24682 kbps 00:37:50.868 99740 bytes 430620 bytes 00:38:37.014
24 0:39:42.880 0:02:17.470 22390 kbps 26170 kbps 00:41:42.566 23684 kbps 00:40:28.192 23627 kbps 00:39:43.948 93385 bytes 390333 bytes 00:40:32.296
25 0:42:00.351 0:02:00.286 24049 kbps 28463 kbps 00:43:20.331 25642 kbps 00:42:26.277 25148 kbps 00:43:16.527 100305 bytes 425454 bytes 00:42:21.372
26 0:44:00.638 0:03:08.087 24251 kbps 29219 kbps 00:44:46.083 25842 kbps 00:44:44.682 25325 kbps 00:44:56.560 101146 bytes 463592 bytes 00:45:06.136
27 0:47:08.725 0:03:16.663 24135 kbps 29162 kbps 00:47:44.094 27270 kbps 00:47:43.994 26068 kbps 00:48:34.578 100664 bytes 493676 bytes 00:48:38.815
28 0:50:25.389 0:04:25.965 23223 kbps 28193 kbps 00:51:06.430 25982 kbps 00:51:05.996 25522 kbps 00:51:02.559 96859 bytes 448635 bytes 00:51:19.976
29 0:54:51.354 0:04:00.206 23077 kbps 29443 kbps 00:58:34.177 26242 kbps 00:58:34.177 25272 kbps 00:58:28.638 96251 bytes 516098 bytes 00:58:36.412
30 0:58:51.561 0:04:33.673 24103 kbps 30332 kbps 01:02:59.542 27074 kbps 01:03:16.459 26072 kbps 01:03:15.091 100528 bytes 441573 bytes 01:03:16.659
31 1:03:25.234 0:01:20.380 25103 kbps 29670 kbps 01:04:42.678 27294 kbps 01:04:40.543 27170 kbps 01:04:30.600 104702 bytes 500551 bytes 01:04:40.610
32 1:04:45.615 0:01:53.746 24231 kbps 29387 kbps 01:05:35.398 26919 kbps 01:05:31.460 26670 kbps 01:05:30.259 101065 bytes 484759 bytes 01:05:35.498
33 1:06:39.362 0:00:52.685 24495 kbps 28400 kbps 01:07:31.047 25873 kbps 01:07:27.043 25238 kbps 01:07:22.038 102166 bytes 431281 bytes 01:07:32.048
34 1:07:32.048 0:01:02.262 24012 kbps 27249 kbps 01:07:44.126 25247 kbps 01:07:44.593 24841 kbps 01:08:01.143 100150 bytes 448117 bytes 01:07:45.094
35 1:08:34.310 0:04:39.912 24046 kbps 27542 kbps 01:11:22.077 25761 kbps 01:10:14.043 25095 kbps 01:12:28.544 100292 bytes 426123 bytes 01:10:18.414
36 1:13:14.223 0:02:09.329 24923 kbps 29137 kbps 01:14:56.325 26669 kbps 01:14:25.961 26284 kbps 01:14:21.290 103951 bytes 484761 bytes 01:14:29.932
37 1:15:23.552 0:02:48.134 23580 kbps 27616 kbps 01:16:49.605 25437 kbps 01:16:46.902 25011 kbps 01:16:45.801 98348 bytes 428305 bytes 01:15:25.053
38 1:18:11.687 0:05:23.389 24794 kbps 29479 kbps 01:20:45.874 26961 kbps 01:23:26.201 26377 kbps 01:19:47.182 103411 bytes 496678 bytes 01:22:23.371
39 1:23:35.076 0:03:22.335 24831 kbps 30420 kbps 01:24:27.762 27159 kbps 01:24:09.944 26474 kbps 01:24:20.855 103564 bytes 488853 bytes 01:24:35.603
40 1:26:57.412 0:05:28.594 23950 kbps 29323 kbps 01:30:22.250 27224 kbps 01:27:21.736 26435 kbps 01:27:17.398 99893 bytes 501143 bytes 01:27:06.854
41 1:32:26.007 0:00:02.002 911 kbps 1261 kbps 01:32:26.207 0 kbps 00:00:00.000 0 kbps 00:00:00.000 3800 bytes 44698 bytes 01:32:26.340
42 1:32:28.009 0:00:12.412 1029 kbps 1261 kbps 01:32:28.009 1051 kbps 01:32:35.383 1051 kbps 01:32:28.042 4305 bytes 44698 bytes 01:32:28.075

STREAM DIAGNOSTICS:

File PID Type Codec Language Seconds Bitrate Bytes Packets
---- --- ---- ----- -------- -------------- -------------- ------------- -----
00004.M2TS 4113 (0x1011) 0x02 MPEG-2 5560,422 23932 16634154871 90499918
00004.M2TS 4352 (0x1100) 0x80 LPCM ita (Italian) 5560,422 2304 1601196728 8870910
00004.M2TS 4353 (0x1101) 0x86 DTS-HD MA ita (Italian) 5560,422 3837 2666815404 15356916
00004.M2TS 4608 (0x1200) 0x90 PGS ita (Italian) 5560,422 20 14011408 81088
00004.M2TS 4609 (0x1201) 0x90 PGS eng (English) 5560,422 20 13707464 79428
00004.M2TS 4610 (0x1202) 0x90 PGS deu (German) 5560,422 21 14924846 86034
00004.M2TS 4611 (0x1203) 0x90 PGS fra (French) 5560,422 22 15346386 88341
00004.M2TS 4612 (0x1204) 0x90 PGS spa (Spanish) 5560,422 22 15408983 88688
00004.M2TS 4613 (0x1205) 0x90 PGS jpn (Japanese) 5560,422 14 9515168 56630[/code]
<---- END DETAILS PASTE ---->

********************
PLAYLIST: 00009.MPLS
********************

<--- BEGIN SUMMARY PASTE --->
[code]Total Video
Title Codec Length Movie Size Disc Size Bitrate Bitrate Main Audio Track Secondary Audio Track
----- ------ ------- -------------- -------------- ------- ------- ------------------ ---------------------
00009.MPLS AVC 0:03:00 341532672 47617708748 15,16 13,98 DD AC3 2.0 192Kbps[/code]
<---- END SUMMARY PASTE ---->

<--- BEGIN DETAILS PASTE --->
[code]DISC INFO:

Disc Title: Mozart Cosi fan tutte 2009 1080i Bluray MPEG2 DTSHD MA 5.1
Disc Size: 47617708748 bytes
Protection: AACS
BD-Java: Yes

PLAYLIST REPORT:

Name: 00009.MPLS
Size: 341532672 bytes
Length: 0:03:00 (h:m:s)
Total Bitrate: 15,16 Mbps
Description:

VIDEO:

Codec Bitrate Description
----- ------- -----------
MPEG-4 AVC Video 13981 kbps 1080i / 29,970 fps / 16:9 / High Profile 4.1

AUDIO:

Codec Language Bitrate Description
----- -------- ------- -----------
Dolby Digital Audio Undetermined 192 kbps 2.0 / 48 kHz / 192 kbps
Dolby Digital Audio Undetermined 192 kbps 2.0 / 48 kHz / 192 kbps

FILES:

Name Time In Length Size Total Bitrate
---- ------- ------ ---- -------------
00009.M2TS 0:00:00.000 0:03:00.180 341532672 15164

CHAPTERS:

Number Time In Length Avg Video Rate Max 1-Sec Rate Max 1-Sec Time Max 5-Sec Rate Max 5-Sec Time Max 10Sec Rate Max 10Sec Time Avg Frame Size Max Frame Size Max Frame Time
------ ------- ------ -------------- -------------- -------------- -------------- -------------- -------------- -------------- -------------- -------------- --------------
1 0:00:00.000 0:02:56.042 14157 kbps 21652 kbps 00:02:49.435 18777 kbps 00:02:32.752 18511 kbps 00:02:32.552 59037 bytes 260454 bytes 00:01:39.766
2 0:02:56.042 0:00:04.137 6469 kbps 18570 kbps 00:02:56.442 0 kbps 00:00:00.000 0 kbps 00:00:00.000 27199 bytes 255020 bytes 00:02:57.410

STREAM DIAGNOSTICS:

File PID Type Codec Language Seconds Bitrate Bytes Packets
---- --- ---- ----- -------- -------------- -------------- ------------- -----
00009.M2TS 4113 (0x1011) 0x1B AVC 180,180 13981 314883547 1714497
00009.M2TS 4352 (0x1100) 0x81 AC3 und (Undetermined) 180,180 192 4324608 28155
00009.M2TS 4353 (0x1101) 0x81 AC3 und (Undetermined) 180,180 192 4324608 28155[/code]
<---- END DETAILS PASTE ---->

********************
PLAYLIST: 01009.MPLS
********************

<--- BEGIN SUMMARY PASTE --->
[code]Total Video
Title Codec Length Movie Size Disc Size Bitrate Bitrate Main Audio Track Secondary Audio Track
----- ------ ------- -------------- -------------- ------- ------- ------------------ ---------------------
01009.MPLS AVC 0:03:00 341532672 47617708748 15,16 13,98 DD AC3 2.0 192Kbps[/code]
<---- END SUMMARY PASTE ---->

<--- BEGIN DETAILS PASTE --->
[code]DISC INFO:

Disc Title: Mozart Cosi fan tutte 2009 1080i Bluray MPEG2 DTSHD MA 5.1
Disc Size: 47617708748 bytes
Protection: AACS
BD-Java: Yes

PLAYLIST REPORT:

Name: 01009.MPLS
Size: 341532672 bytes
Length: 0:03:00 (h:m:s)
Total Bitrate: 15,16 Mbps
Description:

VIDEO:

Codec Bitrate Description
----- ------- -----------
MPEG-4 AVC Video 13981 kbps 1080i / 29,970 fps / 16:9 / High Profile 4.1

AUDIO:

Codec Language Bitrate Description
----- -------- ------- -----------
Dolby Digital Audio Undetermined 192 kbps 2.0 / 48 kHz / 192 kbps
Dolby Digital Audio Undetermined 192 kbps 2.0 / 48 kHz / 192 kbps

FILES:

Name Time In Length Size Total Bitrate
---- ------- ------ ---- -------------
00009.M2TS 0:00:00.000 0:03:00.180 341532672 15164

CHAPTERS:

Number Time In Length Avg Video Rate Max 1-Sec Rate Max 1-Sec Time Max 5-Sec Rate Max 5-Sec Time Max 10Sec Rate Max 10Sec Time Avg Frame Size Max Frame Size Max Frame Time
------ ------- ------ -------------- -------------- -------------- -------------- -------------- -------------- -------------- -------------- -------------- --------------
1 0:00:00.000 0:02:56.042 14157 kbps 21652 kbps 00:02:49.435 18777 kbps 00:02:32.752 18511 kbps 00:02:32.552 59037 bytes 260454 bytes 00:01:39.766
2 0:02:56.042 0:00:04.137 6469 kbps 18570 kbps 00:02:56.442 0 kbps 00:00:00.000 0 kbps 00:00:00.000 27199 bytes 255020 bytes 00:02:57.410

STREAM DIAGNOSTICS:

File PID Type Codec Language Seconds Bitrate Bytes Packets
---- --- ---- ----- -------- -------------- -------------- ------------- -----
00009.M2TS 4113 (0x1011) 0x1B AVC 180,180 13981 314883547 1714497
00009.M2TS 4352 (0x1100) 0x81 AC3 und (Undetermined) 180,180 192 4324608 28155
00009.M2TS 4353 (0x1101) 0x81 AC3 und (Undetermined) 180,180 192 4324608 28155[/code]
<---- END DETAILS PASTE ---->

********************
PLAYLIST: 00010.MPLS
********************

<--- BEGIN SUMMARY PASTE --->
[code]Total Video
Title Codec Length Movie Size Disc Size Bitrate Bitrate Main Audio Track Secondary Audio Track
----- ------ ------- -------------- -------------- ------- ------- ------------------ ---------------------
00010.MPLS AVC 0:02:41 305393664 47617708748 15,16 13,98 DD AC3 2.0 192Kbps[/code]
<---- END SUMMARY PASTE ---->

<--- BEGIN DETAILS PASTE --->
[code]DISC INFO:

Disc Title: Mozart Cosi fan tutte 2009 1080i Bluray MPEG2 DTSHD MA 5.1
Disc Size: 47617708748 bytes
Protection: AACS
BD-Java: Yes

PLAYLIST REPORT:

Name: 00010.MPLS
Size: 305393664 bytes
Length: 0:02:41 (h:m:s)
Total Bitrate: 15,16 Mbps
Description:

VIDEO:

Codec Bitrate Description
----- ------- -----------
MPEG-4 AVC Video 13977 kbps 1080i / 29,970 fps / 16:9 / High Profile 4.1

AUDIO:

Codec Language Bitrate Description
----- -------- ------- -----------
Dolby Digital Audio Undetermined 192 kbps 2.0 / 48 kHz / 192 kbps
Dolby Digital Audio Undetermined 192 kbps 2.0 / 48 kHz / 192 kbps

FILES:

Name Time In Length Size Total Bitrate
---- ------- ------ ---- -------------
00010.M2TS 0:00:00.000 0:02:41.161 305393664 15160

CHAPTERS:

Number Time In Length Avg Video Rate Max 1-Sec Rate Max 1-Sec Time Max 5-Sec Rate Max 5-Sec Time Max 10Sec Rate Max 10Sec Time Avg Frame Size Max Frame Size Max Frame Time
------ ------- ------ -------------- -------------- -------------- -------------- -------------- -------------- -------------- -------------- -------------- --------------
1 0:00:00.000 0:02:38.024 14150 kbps 20755 kbps 00:02:11.231 19477 kbps 00:02:07.527 19042 kbps 00:02:21.074 59004 bytes 256811 bytes 00:01:25.452
2 0:02:38.024 0:00:03.136 5260 kbps 13191 kbps 00:02:38.057 0 kbps 00:00:00.000 0 kbps 00:00:00.000 22175 bytes 184790 bytes 00:02:38.291

STREAM DIAGNOSTICS:

File PID Type Codec Language Seconds Bitrate Bytes Packets
---- --- ---- ----- -------- -------------- -------------- ------------- -----
00010.M2TS 4113 (0x1011) 0x1B AVC 161,161 13977 281563526 1533073
00010.M2TS 4352 (0x1100) 0x81 AC3 und (Undetermined) 161,161 192 3866880 25175
00010.M2TS 4353 (0x1101) 0x81 AC3 und (Undetermined) 161,161 192 3866880 25175[/code]
<---- END DETAILS PASTE ---->

********************
PLAYLIST: 01010.MPLS
********************

<--- BEGIN SUMMARY PASTE --->
[code]Total Video
Title Codec Length Movie Size Disc Size Bitrate Bitrate Main Audio Track Secondary Audio Track
----- ------ ------- -------------- -------------- ------- ------- ------------------ ---------------------
01010.MPLS AVC 0:02:41 305393664 47617708748 15,16 13,98 DD AC3 2.0 192Kbps[/code]
<---- END SUMMARY PASTE ---->

<--- BEGIN DETAILS PASTE --->
[code]DISC INFO:

Disc Title: Mozart Cosi fan tutte 2009 1080i Bluray MPEG2 DTSHD MA 5.1
Disc Size: 47617708748 bytes
Protection: AACS
BD-Java: Yes

PLAYLIST REPORT:

Name: 01010.MPLS
Size: 305393664 bytes
Length: 0:02:41 (h:m:s)
Total Bitrate: 15,16 Mbps
Description:

VIDEO:

Codec Bitrate Description
----- ------- -----------
MPEG-4 AVC Video 13977 kbps 1080i / 29,970 fps / 16:9 / High Profile 4.1

AUDIO:

Codec Language Bitrate Description
----- -------- ------- -----------
Dolby Digital Audio Undetermined 192 kbps 2.0 / 48 kHz / 192 kbps
Dolby Digital Audio Undetermined 192 kbps 2.0 / 48 kHz / 192 kbps

FILES:

Name Time In Length Size Total Bitrate
---- ------- ------ ---- -------------
00010.M2TS 0:00:00.000 0:02:41.161 305393664 15160

CHAPTERS:

Number Time In Length Avg Video Rate Max 1-Sec Rate Max 1-Sec Time Max 5-Sec Rate Max 5-Sec Time Max 10Sec Rate Max 10Sec Time Avg Frame Size Max Frame Size Max Frame Time
------ ------- ------ -------------- -------------- -------------- -------------- -------------- -------------- -------------- -------------- -------------- --------------
1 0:00:00.000 0:02:38.024 14150 kbps 20755 kbps 00:02:11.231 19477 kbps 00:02:07.527 19042 kbps 00:02:21.074 59004 bytes 256811 bytes 00:01:25.452
2 0:02:38.024 0:00:03.136 5260 kbps 13191 kbps 00:02:38.057 0 kbps 00:00:00.000 0 kbps 00:00:00.000 22175 bytes 184790 bytes 00:02:38.291

STREAM DIAGNOSTICS:

File PID Type Codec Language Seconds Bitrate Bytes Packets
---- --- ---- ----- -------- -------------- -------------- ------------- -----
00010.M2TS 4113 (0x1011) 0x1B AVC 161,161 13977 281563526 1533073
00010.M2TS 4352 (0x1100) 0x81 AC3 und (Undetermined) 161,161 192 3866880 25175
00010.M2TS 4353 (0x1101) 0x81 AC3 und (Undetermined) 161,161 192 3866880 25175[/code]
<---- END DETAILS PASTE ---->

********************
PLAYLIST: 00008.MPLS
********************

<--- BEGIN SUMMARY PASTE --->
[code]Total Video
Title Codec Length Movie Size Disc Size Bitrate Bitrate Main Audio Track Secondary Audio Track
----- ------ ------- -------------- -------------- ------- ------- ------------------ ---------------------
00008.MPLS AVC 0:02:39 301639680 47617708748 15,16 13,98 DD AC3 2.0 192Kbps[/code]
<---- END SUMMARY PASTE ---->

<--- BEGIN DETAILS PASTE --->
[code]DISC INFO:

Disc Title: Mozart Cosi fan tutte 2009 1080i Bluray MPEG2 DTSHD MA 5.1
Disc Size: 47617708748 bytes
Protection: AACS
BD-Java: Yes

PLAYLIST REPORT:

Name: 00008.MPLS
Size: 301639680 bytes
Length: 0:02:39 (h:m:s)
Total Bitrate: 15,16 Mbps
Description:

VIDEO:

Codec Bitrate Description
----- ------- -----------
MPEG-4 AVC Video 13978 kbps 1080i / 29,970 fps / 16:9 / High Profile 4.1

AUDIO:

Codec Language Bitrate Description
----- -------- ------- -----------
Dolby Digital Audio Undetermined 192 kbps 2.0 / 48 kHz / 192 kbps
Dolby Digital Audio Undetermined 192 kbps 2.0 / 48 kHz / 192 kbps

FILES:

Name Time In Length Size Total Bitrate
---- ------- ------ ---- -------------
00008.M2TS 0:00:00.000 0:02:39.159 301639680 15162

CHAPTERS:

Number Time In Length Avg Video Rate Max 1-Sec Rate Max 1-Sec Time Max 5-Sec Rate Max 5-Sec Time Max 10Sec Rate Max 10Sec Time Avg Frame Size Max Frame Size Max Frame Time
------ ------- ------ -------------- -------------- -------------- -------------- -------------- -------------- -------------- -------------- -------------- --------------
1 0:00:00.000 0:02:36.022 14120 kbps 27438 kbps 00:02:26.146 25795 kbps 00:02:23.910 23705 kbps 00:02:21.808 58881 bytes 298850 bytes 00:02:35.321
2 0:02:36.022 0:00:03.136 6915 kbps 16843 kbps 00:02:36.022 0 kbps 00:00:00.000 0 kbps 00:00:00.000 29150 bytes 239705 bytes 00:02:36.523

STREAM DIAGNOSTICS:

File PID Type Codec Language Seconds Bitrate Bytes Packets
---- --- ---- ----- -------- -------------- -------------- ------------- -----
00008.M2TS 4113 (0x1011) 0x1B AVC 159,159 13978 278098217 1514228
00008.M2TS 4352 (0x1100) 0x81 AC3 und (Undetermined) 159,159 192 3818496 24860
00008.M2TS 4353 (0x1101) 0x81 AC3 und (Undetermined) 159,159 192 3818496 24860[/code]
<---- END DETAILS PASTE ---->

********************
PLAYLIST: 01008.MPLS
********************

<--- BEGIN SUMMARY PASTE --->
[code]Total Video
Title Codec Length Movie Size Disc Size Bitrate Bitrate Main Audio Track Secondary Audio Track
----- ------ ------- -------------- -------------- ------- ------- ------------------ ---------------------
01008.MPLS AVC 0:02:39 301639680 47617708748 15,16 13,98 DD AC3 2.0 192Kbps[/code]
<---- END SUMMARY PASTE ---->

<--- BEGIN DETAILS PASTE --->
[code]DISC INFO:

Disc Title: Mozart Cosi fan tutte 2009 1080i Bluray MPEG2 DTSHD MA 5.1
Disc Size: 47617708748 bytes
Protection: AACS
BD-Java: Yes

PLAYLIST REPORT:

Name: 01008.MPLS
Size: 301639680 bytes
Length: 0:02:39 (h:m:s)
Total Bitrate: 15,16 Mbps
Description:

VIDEO:

Codec Bitrate Description
----- ------- -----------
MPEG-4 AVC Video 13978 kbps 1080i / 29,970 fps / 16:9 / High Profile 4.1

AUDIO:

Codec Language Bitrate Description
----- -------- ------- -----------
Dolby Digital Audio Undetermined 192 kbps 2.0 / 48 kHz / 192 kbps
Dolby Digital Audio Undetermined 192 kbps 2.0 / 48 kHz / 192 kbps

FILES:

Name Time In Length Size Total Bitrate
---- ------- ------ ---- -------------
00008.M2TS 0:00:00.000 0:02:39.159 301639680 15162

CHAPTERS:

Number Time In Length Avg Video Rate Max 1-Sec Rate Max 1-Sec Time Max 5-Sec Rate Max 5-Sec Time Max 10Sec Rate Max 10Sec Time Avg Frame Size Max Frame Size Max Frame Time
------ ------- ------ -------------- -------------- -------------- -------------- -------------- -------------- -------------- -------------- -------------- --------------
1 0:00:00.000 0:02:36.022 14120 kbps 27438 kbps 00:02:26.146 25795 kbps 00:02:23.910 23705 kbps 00:02:21.808 58881 bytes 298850 bytes 00:02:35.321
2 0:02:36.022 0:00:03.136 6915 kbps 16843 kbps 00:02:36.022 0 kbps 00:00:00.000 0 kbps 00:00:00.000 29150 bytes 239705 bytes 00:02:36.523

STREAM DIAGNOSTICS:

File PID Type Codec Language Seconds Bitrate Bytes Packets
---- --- ---- ----- -------- -------------- -------------- ------------- -----
00008.M2TS 4113 (0x1011) 0x1B AVC 159,159 13978 278098217 1514228
00008.M2TS 4352 (0x1100) 0x81 AC3 und (Undetermined) 159,159 192 3818496 24860
00008.M2TS 4353 (0x1101) 0x81 AC3 und (Undetermined) 159,159 192 3818496 24860[/code]
<---- END DETAILS PASTE ---->

********************
PLAYLIST: 00007.MPLS
********************

<--- BEGIN SUMMARY PASTE --->
[code]Total Video
Title Codec Length Movie Size Disc Size Bitrate Bitrate Main Audio Track Secondary Audio Track
----- ------ ------- -------------- -------------- ------- ------- ------------------ ---------------------
00007.MPLS MPEG-2 0:02:24 271257600 47617708748 15,00 13,82 DD AC3 2.0 192Kbps[/code]
<---- END SUMMARY PASTE ---->

<--- BEGIN DETAILS PASTE --->
[code]DISC INFO:

Disc Title: Mozart Cosi fan tutte 2009 1080i Bluray MPEG2 DTSHD MA 5.1
Disc Size: 47617708748 bytes
Protection: AACS
BD-Java: Yes

PLAYLIST REPORT:

Name: 00007.MPLS
Size: 271257600 bytes
Length: 0:02:24 (h:m:s)
Total Bitrate: 15,00 Mbps
Description:

VIDEO:

Codec Bitrate Description
----- ------- -----------
MPEG-2 Video 13820 kbps 1080i / 29,970 fps / 16:9

AUDIO:

Codec Language Bitrate Description
----- -------- ------- -----------
Dolby Digital Audio Undetermined 192 kbps 2.0 / 48 kHz / 192 kbps
Dolby Digital Audio Undetermined 192 kbps 2.0 / 48 kHz / 192 kbps

FILES:

Name Time In Length Size Total Bitrate
---- ------- ------ ---- -------------
00007.M2TS 0:00:00.000 0:02:24.711 271257600 14996

CHAPTERS:

Number Time In Length Avg Video Rate Max 1-Sec Rate Max 1-Sec Time Max 5-Sec Rate Max 5-Sec Time Max 10Sec Rate Max 10Sec Time Avg Frame Size Max Frame Size Max Frame Time
------ ------- ------ -------------- -------------- -------------- -------------- -------------- -------------- -------------- -------------- -------------- --------------
1 0:00:00.000 0:02:22.008 13856 kbps 17781 kbps 00:01:20.246 16132 kbps 00:00:27.694 15841 kbps 00:00:26.559 57777 bytes 243271 bytes 00:00:30.063
2 0:02:22.008 0:00:02.702 11921 kbps 15197 kbps 00:02:23.209 0 kbps 00:00:00.000 0 kbps 00:00:00.000 50341 bytes 199653 bytes 00:02:23.676

STREAM DIAGNOSTICS:

File PID Type Codec Language Seconds Bitrate Bytes Packets
---- --- ---- ----- -------- -------------- -------------- ------------- -----
00007.M2TS 4113 (0x1011) 0x02 MPEG-2 144,711 13820 249983515 1361127
00007.M2TS 4352 (0x1100) 0x81 AC3 und (Undetermined) 144,711 192 3473664 22615
00007.M2TS 4353 (0x1101) 0x81 AC3 und (Undetermined) 144,711 192 3473664 22615[/code]
<---- END DETAILS PASTE ---->

********************
PLAYLIST: 01007.MPLS
********************

<--- BEGIN SUMMARY PASTE --->
[code]Total Video
Title Codec Length Movie Size Disc Size Bitrate Bitrate Main Audio Track Secondary Audio Track
----- ------ ------- -------------- -------------- ------- ------- ------------------ ---------------------
01007.MPLS MPEG-2 0:02:24 271257600 47617708748 15,00 13,82 DD AC3 2.0 192Kbps[/code]
<---- END SUMMARY PASTE ---->

<--- BEGIN DETAILS PASTE --->
[code]DISC INFO:

Disc Title: Mozart Cosi fan tutte 2009 1080i Bluray MPEG2 DTSHD MA 5.1
Disc Size: 47617708748 bytes
Protection: AACS
BD-Java: Yes

PLAYLIST REPORT:

Name: 01007.MPLS
Size: 271257600 bytes
Length: 0:02:24 (h:m:s)
Total Bitrate: 15,00 Mbps
Description:

VIDEO:

Codec Bitrate Description
----- ------- -----------
MPEG-2 Video 13820 kbps 1080i / 29,970 fps / 16:9

AUDIO:

Codec Language Bitrate Description
----- -------- ------- -----------
Dolby Digital Audio Undetermined 192 kbps 2.0 / 48 kHz / 192 kbps
Dolby Digital Audio Undetermined 192 kbps 2.0 / 48 kHz / 192 kbps

FILES:

Name Time In Length Size Total Bitrate
---- ------- ------ ---- -------------
00007.M2TS 0:00:00.000 0:02:24.711 271257600 14996

CHAPTERS:

Number Time In Length Avg Video Rate Max 1-Sec Rate Max 1-Sec Time Max 5-Sec Rate Max 5-Sec Time Max 10Sec Rate Max 10Sec Time Avg Frame Size Max Frame Size Max Frame Time
------ ------- ------ -------------- -------------- -------------- -------------- -------------- -------------- -------------- -------------- -------------- --------------
1 0:00:00.000 0:02:22.008 13856 kbps 17781 kbps 00:01:20.246 16132 kbps 00:00:27.694 15841 kbps 00:00:26.559 57777 bytes 243271 bytes 00:00:30.063
2 0:02:22.008 0:00:02.702 11921 kbps 15197 kbps 00:02:23.209 0 kbps 00:00:00.000 0 kbps 00:00:00.000 50341 bytes 199653 bytes 00:02:23.676

STREAM DIAGNOSTICS:

File PID Type Codec Language Seconds Bitrate Bytes Packets
---- --- ---- ----- -------- -------------- -------------- ------------- -----
00007.M2TS 4113 (0x1011) 0x02 MPEG-2 144,711 13820 249983515 1361127
00007.M2TS 4352 (0x1100) 0x81 AC3 und (Undetermined) 144,711 192 3473664 22615
00007.M2TS 4353 (0x1101) 0x81 AC3 und (Undetermined) 144,711 192 3473664 22615[/code]
<---- END DETAILS PASTE ---->

********************
PLAYLIST: 00002.MPLS
********************

<--- BEGIN SUMMARY PASTE --->
[code]Total Video
Title Codec Length Movie Size Disc Size Bitrate Bitrate Main Audio Track Secondary Audio Track
----- ------ ------- -------------- -------------- ------- ------- ------------------ ---------------------
00002.MPLS AVC 0:01:02 195852288 47617708748 24,92 19,08 LPCM 2.0 2304Kbps (48kHz/24-bit) LPCM 2.0 2304Kbps (48kHz/24-bit)[/code]
<---- END SUMMARY PASTE ---->

<--- BEGIN DETAILS PASTE --->
[code]DISC INFO:

Disc Title: Mozart Cosi fan tutte 2009 1080i Bluray MPEG2 DTSHD MA 5.1
Disc Size: 47617708748 bytes
Protection: AACS
BD-Java: Yes

PLAYLIST REPORT:

Name: 00002.MPLS
Size: 195852288 bytes
Length: 0:01:02 (h:m:s)
Total Bitrate: 24,92 Mbps
Description:

VIDEO:

Codec Bitrate Description
----- ------- -----------
MPEG-4 AVC Video 19084 kbps 1080i / 29,970 fps / 16:9 / High Profile 4.1

AUDIO:

Codec Language Bitrate Description
----- -------- ------- -----------
LPCM Audio Undetermined 2304 kbps 2.0 / 48 kHz / 2304 kbps / 24-bit
LPCM Audio Undetermined 2304 kbps 2.0 / 48 kHz / 2304 kbps / 24-bit

FILES:

Name Time In Length Size Total Bitrate
---- ------- ------ ---- -------------
00002.M2TS 0:00:00.000 0:01:02.862 195852288 24924

CHAPTERS:

Number Time In Length Avg Video Rate Max 1-Sec Rate Max 1-Sec Time Max 5-Sec Rate Max 5-Sec Time Max 10Sec Rate Max 10Sec Time Avg Frame Size Max Frame Size Max Frame Time
------ ------- ------ -------------- -------------- -------------- -------------- -------------- -------------- -------------- -------------- -------------- --------------
1 0:00:00.000 0:00:02.001 9553 kbps 18125 kbps 00:00:01.001 0 kbps 00:00:00.000 0 kbps 00:00:00.000 39189 bytes 278670 bytes 00:00:02.002
2 0:00:02.001 0:00:57.857 19317 kbps 32074 kbps 00:00:57.724 29568 kbps 00:00:02.068 24777 kbps 00:00:02.002 80567 bytes 409428 bytes 00:00:03.003
3 0:00:59.859 0:00:03.003 20950 kbps 29342 kbps 00:01:00.493 0 kbps 00:00:00.000 0 kbps 00:00:00.000 88362 bytes 299196 bytes 00:00:59.893

STREAM DIAGNOSTICS:

File PID Type Codec Language Seconds Bitrate Bytes Packets
---- --- ---- ----- -------- -------------- -------------- ------------- -----
00002.M2TS 4113 (0x1011) 0x1B AVC 62,863 19084 149957815 816091
00002.M2TS 4352 (0x1100) 0x80 LPCM und (Undetermined) 62,863 2310 18154776 100581
00002.M2TS 4353 (0x1101) 0x80 LPCM und (Undetermined) 62,863 2310 18154776 100581[/code]
<---- END DETAILS PASTE ---->

********************
PLAYLIST: 00003.MPLS
********************

<--- BEGIN SUMMARY PASTE --->
[code]Total Video
Title Codec Length Movie Size Disc Size Bitrate Bitrate Main Audio Track Secondary Audio Track
----- ------ ------- -------------- -------------- ------- ------- ------------------ ---------------------
00003.MPLS AVC 0:01:02 186193920 47617708748 23,70 19,08 LPCM 2.0 1536Kbps (48kHz/16-bit) LPCM 2.0 1536Kbps (48kHz/16-bit)[/code]
<---- END SUMMARY PASTE ---->

<--- BEGIN DETAILS PASTE --->
[code]DISC INFO:

Disc Title: Mozart Cosi fan tutte 2009 1080i Bluray MPEG2 DTSHD MA 5.1
Disc Size: 47617708748 bytes
Protection: AACS
BD-Java: Yes

PLAYLIST REPORT:

Name: 00003.MPLS
Size: 186193920 bytes
Length: 0:01:02 (h:m:s)
Total Bitrate: 23,70 Mbps
Description:

VIDEO:

Codec Bitrate Description
----- ------- -----------
MPEG-4 AVC Video 19084 kbps 1080i / 29,970 fps / 16:9 / High Profile 4.1

AUDIO:

Codec Language Bitrate Description
----- -------- ------- -----------
LPCM Audio Undetermined 1536 kbps 2.0 / 48 kHz / 1536 kbps / 16-bit
LPCM Audio Undetermined 1536 kbps 2.0 / 48 kHz / 1536 kbps / 16-bit

FILES:

Name Time In Length Size Total Bitrate
---- ------- ------ ---- -------------
00003.M2TS 0:00:00.000 0:01:02.862 186193920 23695

CHAPTERS:

Number Time In Length Avg Video Rate Max 1-Sec Rate Max 1-Sec Time Max 5-Sec Rate Max 5-Sec Time Max 10Sec Rate Max 10Sec Time Avg Frame Size Max Frame Size Max Frame Time
------ ------- ------ -------------- -------------- -------------- -------------- -------------- -------------- -------------- -------------- -------------- --------------
1 0:00:00.000 0:00:02.001 9553 kbps 18125 kbps 00:00:01.001 0 kbps 00:00:00.000 0 kbps 00:00:00.000 39189 bytes 278670 bytes 00:00:02.002
2 0:00:02.001 0:00:57.857 19317 kbps 32074 kbps 00:00:57.724 29568 kbps 00:00:02.068 24777 kbps 00:00:02.002 80567 bytes 409428 bytes 00:00:03.003
3 0:00:59.859 0:00:03.003 20950 kbps 29342 kbps 00:01:00.493 0 kbps 00:00:00.000 0 kbps 00:00:00.000 88362 bytes 299196 bytes 00:00:59.893

STREAM DIAGNOSTICS:

File PID Type Codec Language Seconds Bitrate Bytes Packets
---- --- ---- ----- -------- -------------- -------------- ------------- -----
00003.M2TS 4113 (0x1011) 0x1B AVC 62,863 19084 149957815 816091
00003.M2TS 4352 (0x1100) 0x80 LPCM und (Undetermined) 62,863 1542 12119948 75436
00003.M2TS 4353 (0x1101) 0x80 LPCM und (Undetermined) 62,863 1542 12119948 75436[/code]
<---- END DETAILS PASTE ---->

********************
PLAYLIST: 01002.MPLS
********************

<--- BEGIN SUMMARY PASTE --->
[code]Total Video
Title Codec Length Movie Size Disc Size Bitrate Bitrate Main Audio Track Secondary Audio Track
----- ------ ------- -------------- -------------- ------- ------- ------------------ ---------------------
01002.MPLS AVC 0:01:02 195852288 47617708748 24,92 19,08 LPCM 2.0 2304Kbps (48kHz/24-bit) LPCM 2.0 2304Kbps (48kHz/24-bit)[/code]
<---- END SUMMARY PASTE ---->

<--- BEGIN DETAILS PASTE --->
[code]DISC INFO:

Disc Title: Mozart Cosi fan tutte 2009 1080i Bluray MPEG2 DTSHD MA 5.1
Disc Size: 47617708748 bytes
Protection: AACS
BD-Java: Yes

PLAYLIST REPORT:

Name: 01002.MPLS
Size: 195852288 bytes
Length: 0:01:02 (h:m:s)
Total Bitrate: 24,92 Mbps
Description:

VIDEO:

Codec Bitrate Description
----- ------- -----------
MPEG-4 AVC Video 19084 kbps 1080i / 29,970 fps / 16:9 / High Profile 4.1

AUDIO:

Codec Language Bitrate Description
----- -------- ------- -----------
LPCM Audio Undetermined 2304 kbps 2.0 / 48 kHz / 2304 kbps / 24-bit
LPCM Audio Undetermined 2304 kbps 2.0 / 48 kHz / 2304 kbps / 24-bit

FILES:

Name Time In Length Size Total Bitrate
---- ------- ------ ---- -------------
00002.M2TS 0:00:00.000 0:01:02.862 195852288 24924

CHAPTERS:

Number Time In Length Avg Video Rate Max 1-Sec Rate Max 1-Sec Time Max 5-Sec Rate Max 5-Sec Time Max 10Sec Rate Max 10Sec Time Avg Frame Size Max Frame Size Max Frame Time
------ ------- ------ -------------- -------------- -------------- -------------- -------------- -------------- -------------- -------------- -------------- --------------
1 0:00:00.000 0:00:02.001 9553 kbps 18125 kbps 00:00:01.001 0 kbps 00:00:00.000 0 kbps 00:00:00.000 39189 bytes 278670 bytes 00:00:02.002
2 0:00:02.001 0:00:57.857 19317 kbps 32074 kbps 00:00:57.724 29568 kbps 00:00:02.068 24777 kbps 00:00:02.002 80567 bytes 409428 bytes 00:00:03.003
3 0:00:59.859 0:00:03.003 20950 kbps 29342 kbps 00:01:00.493 0 kbps 00:00:00.000 0 kbps 00:00:00.000 88362 bytes 299196 bytes 00:00:59.893

STREAM DIAGNOSTICS:

File PID Type Codec Language Seconds Bitrate Bytes Packets
---- --- ---- ----- -------- -------------- -------------- ------------- -----
00002.M2TS 4113 (0x1011) 0x1B AVC 62,863 19084 149957815 816091
00002.M2TS 4352 (0x1100) 0x80 LPCM und (Undetermined) 62,863 2310 18154776 100581
00002.M2TS 4353 (0x1101) 0x80 LPCM und (Undetermined) 62,863 2310 18154776 100581[/code]
<---- END DETAILS PASTE ---->

********************
PLAYLIST: 01003.MPLS
********************

<--- BEGIN SUMMARY PASTE --->
[code]Total Video
Title Codec Length Movie Size Disc Size Bitrate Bitrate Main Audio Track Secondary Audio Track
----- ------ ------- -------------- -------------- ------- ------- ------------------ ---------------------
01003.MPLS AVC 0:01:02 186193920 47617708748 23,70 19,08 LPCM 2.0 1536Kbps (48kHz/16-bit) LPCM 2.0 1536Kbps (48kHz/16-bit)[/code]
<---- END SUMMARY PASTE ---->

<--- BEGIN DETAILS PASTE --->
[code]DISC INFO:

Disc Title: Mozart Cosi fan tutte 2009 1080i Bluray MPEG2 DTSHD MA 5.1
Disc Size: 47617708748 bytes
Protection: AACS
BD-Java: Yes

PLAYLIST REPORT:

Name: 01003.MPLS
Size: 186193920 bytes
Length: 0:01:02 (h:m:s)
Total Bitrate: 23,70 Mbps
Description:

VIDEO:

Codec Bitrate Description
----- ------- -----------
MPEG-4 AVC Video 19084 kbps 1080i / 29,970 fps / 16:9 / High Profile 4.1

AUDIO:

Codec Language Bitrate Description
----- -------- ------- -----------
LPCM Audio Undetermined 1536 kbps 2.0 / 48 kHz / 1536 kbps / 16-bit
LPCM Audio Undetermined 1536 kbps 2.0 / 48 kHz / 1536 kbps / 16-bit

FILES:

Name Time In Length Size Total Bitrate
---- ------- ------ ---- -------------
00003.M2TS 0:00:00.000 0:01:02.862 186193920 23695

CHAPTERS:

Number Time In Length Avg Video Rate Max 1-Sec Rate Max 1-Sec Time Max 5-Sec Rate Max 5-Sec Time Max 10Sec Rate Max 10Sec Time Avg Frame Size Max Frame Size Max Frame Time
------ ------- ------ -------------- -------------- -------------- -------------- -------------- -------------- -------------- -------------- -------------- --------------
1 0:00:00.000 0:00:02.001 9553 kbps 18125 kbps 00:00:01.001 0 kbps 00:00:00.000 0 kbps 00:00:00.000 39189 bytes 278670 bytes 00:00:02.002
2 0:00:02.001 0:00:57.857 19317 kbps 32074 kbps 00:00:57.724 29568 kbps 00:00:02.068 24777 kbps 00:00:02.002 80567 bytes 409428 bytes 00:00:03.003
3 0:00:59.859 0:00:03.003 20950 kbps 29342 kbps 00:01:00.493 0 kbps 00:00:00.000 0 kbps 00:00:00.000 88362 bytes 299196 bytes 00:00:59.893

STREAM DIAGNOSTICS:

File PID Type Codec Language Seconds Bitrate Bytes Packets
---- --- ---- ----- -------- -------------- -------------- ------------- -----
00003.M2TS 4113 (0x1011) 0x1B AVC 62,863 19084 149957815 816091
00003.M2TS 4352 (0x1100) 0x80 LPCM und (Undetermined) 62,863 1542 12119948 75436
00003.M2TS 4353 (0x1101) 0x80 LPCM und (Undetermined) 62,863 1542 12119948 75436[/code]
<---- END DETAILS PASTE ---->

********************
PLAYLIST: 00000.MPLS
********************

<--- BEGIN SUMMARY PASTE --->
[code]Total Video
Title Codec Length Movie Size Disc Size Bitrate Bitrate Main Audio Track Secondary Audio Track
----- ------ ------- -------------- -------------- ------- ------- ------------------ ---------------------
00000.MPLS AVC 0:00:14 4319232 47617708748 2,46 2,26[/code]
<---- END SUMMARY PASTE ---->

<--- BEGIN DETAILS PASTE --->
[code]

DISC INFO:

Disc Title: Mozart Cosi fan tutte 2009 1080i Bluray MPEG2 DTSHD MA 5.1
Disc Size: 47617708748 bytes
Protection: AACS
BD-Java: Yes

PLAYLIST REPORT:

Name: 00000.MPLS
Size: 4319232 bytes
Length: 0:00:14 (h:m:s)
Total Bitrate: 2,46 Mbps
Description:

VIDEO:

Codec Bitrate Description
----- ------- -----------
MPEG-4 AVC Video 2262 kbps 1080i / 29,970 fps / 16:9 / High Profile 4.1

FILES:

Name Time In Length Size Total Bitrate
---- ------- ------ ---- -------------
00000.M2TS 0:00:00.000 0:00:14.047 4319232 2460

CHAPTERS:

Number Time In Length Avg Video Rate[/code]


 ·  , , FAQ-
:  [ 27--2011 21:09 ]

  

.torrent

.torrent 228 KB


: 44.35 GB
(hash) : 99d34cae834f05f1aed111c17737b9b5f9b0224e
··
...

Mozart - Cosi Fan Tutte - . !

!