Richard Strauss - Der Rosenkavalier - torrent

, , - AdBlock. #!


45.1 GB   |    :  5 11    |    .torrent :  116    |   
1  
   
...
 

L


: " " / Richard Strauss: Der Rosenkavalier

: 2009
:
: 03 . 31 . 08 .
: Renée Fleming (Marschallin), Franz Hawlata (Baron Ochs), Sophie Koch (Octavian), Diana Damrau (Sophie), Jonas Kaufmann (The Italian Tenor), Franz Grundheber (Faninal), Jane Henschel (Annina), Munich Philharmonic Orchestra
: Herbert Wernicke
: Christian Thielemann

: Blu-Ray (BD-50 Dual-Layer Disc)
: BDMV
: MPEG-4 AVC Video / 19995 kbps / 1920x1080i / 29,970 fps / 16:9 / High Profile 4.1
#1: German DTS-HD MA 5.1 (48 kHz / 3895 kbps / 24-bit)
#2: German LPCM 2.0 (48 kHz / 2304 kbps / 24-bit)
: , , , ,

:
Disc Title:
Disc Size: 48423955384 bytes
Protection: AACS
BD-Java: No
BDInfo: 0.5.3

Notes:

BDINFO HOME:
Cinema Squid
http://www.cinemasquid.com/blu-ray/tools/bdinfo

INCLUDES FORUMS REPORT FOR:
AVS Forum Blu-ray Audio and Video Specifications Thread
http://www.avsforum.com/avs-vb/showthread.php?t=1155731

********************
PLAYLIST: 00003.MPLS
********************

<--- BEGIN FORUMS PASTE --->

:

Total Video
Title Codec Length Movie Size Disc Size Bitrate Bitrate Main Audio Track Secondary Audio Track
----- ------ ------- -------------- -------------- ------- ------- ------------------ ---------------------
00003.MPLS AVC 3:31:08 29146116096 48423955384 18,41 20,00 DTS-HD Master 5.1 3895Kbps (48kHz/24-bit) LPCM 2.0 2304Kbps (48kHz/24-bit)
[code]DISC INFO:

Disc Title:
Disc Size: 48423955384 bytes
Protection: AACS
BD-Java: No
BDInfo: 0.5.3

PLAYLIST REPORT:

Name: 00003.MPLS
Length: 3:31:08 (h:m:s)
Size: 29146116096 bytes
Total Bitrate: 18,41 Mbps

VIDEO:

Codec Bitrate Description
----- ------- -----------
MPEG-4 AVC Video 19995 kbps 1080i / 29,970 fps / 16:9 / High Profile 4.1

AUDIO:

Codec Language Bitrate Description
----- -------- ------- -----------
DTS-HD Master Audio German 3895 kbps 5.1 / 48 kHz / 3895 kbps / 24-bit (DTS Core: 5.1 / 48 kHz / 1509 kbps / 24-bit)
LPCM Audio German 2304 kbps 2.0 / 48 kHz / 2304 kbps / 24-bit

SUBTITLES:

Codec Language Bitrate Description
----- -------- ------- -----------
Presentation Graphics English 23,598 kbps
Presentation Graphics Chinese 31,301 kbps
Presentation Graphics French 23,596 kbps
Presentation Graphics German 27,238 kbps
Presentation Graphics Spanish 25,278 kbps

FILES:

Name Time In Length Size Total Bitrate
---- ------- ------ ---- -------------
00008.M2TS 0:00:00.000 1:17:21.003 16130426880 27805
00009.M2TS 1:17:21.003 1:02:11.427 13015689216 27905
00010.M2TS 2:19:32.430 1:11:36.158 0 0

CHAPTERS:

Number Time In Length Avg Video Rate Max 1-Sec Rate Max 1-Sec Time Max 5-Sec Rate Max 5-Sec Time Max 10Sec Rate Max 10Sec Time Avg Frame Size Max Frame Size Max Frame Time
------ ------- ------ -------------- -------------- -------------- -------------- -------------- -------------- -------------- -------------- -------------- --------------
1 0:00:00.000 0:01:59.319 17353 kbps 28060 kbps 00:00:22.889 21391 kbps 00:00:39.239 21100 kbps 00:00:32.232 72354 bytes 350983 bytes 00:00:23.857
2 0:01:59.319 0:07:36.722 16363 kbps 25094 kbps 00:03:05.852 21788 kbps 00:09:27.233 21377 kbps 00:02:27.280 68247 bytes 310546 bytes 00:09:31.237
3 0:09:36.042 0:02:48.535 20593 kbps 28845 kbps 00:11:56.148 27058 kbps 00:11:54.613 25084 kbps 00:11:49.642 85890 bytes 353018 bytes 00:12:10.062
4 0:12:24.577 0:09:03.376 18798 kbps 27476 kbps 00:21:26.418 25046 kbps 00:21:22.514 23414 kbps 00:21:17.943 78405 bytes 326249 bytes 00:15:25.557
5 0:21:27.953 0:08:52.698 22796 kbps 30936 kbps 00:26:34.092 28856 kbps 00:27:00.251 27477 kbps 00:26:56.681 95079 bytes 358298 bytes 00:27:02.921
6 0:30:20.652 0:07:35.621 22800 kbps 30273 kbps 00:34:13.051 28539 kbps 00:31:43.635 26888 kbps 00:34:10.481 95094 bytes 327372 bytes 00:33:42.687
7 0:37:56.274 0:03:15.862 26306 kbps 32967 kbps 00:39:50.588 30754 kbps 00:39:47.184 30550 kbps 00:38:21.799 109720 bytes 380650 bytes 00:40:14.478
8 0:41:12.136 0:09:33.239 23827 kbps 32695 kbps 00:47:55.005 30977 kbps 00:47:30.881 30639 kbps 00:47:14.665 99377 bytes 371341 bytes 00:43:21.065
9 0:50:45.375 0:05:37.336 17595 kbps 25515 kbps 00:51:50.373 25116 kbps 00:51:47.671 24692 kbps 00:51:47.704 73384 bytes 321252 bytes 00:51:59.716
10 0:56:22.712 0:06:14.374 17756 kbps 27110 kbps 00:56:27.050 25410 kbps 00:56:24.347 24572 kbps 00:56:22.712 74058 bytes 324978 bytes 00:56:28.718
11 1:02:37.086 0:14:43.916 17709 kbps 29315 kbps 01:14:21.590 27327 kbps 01:14:21.590 25656 kbps 01:13:41.450 73860 bytes 353791 bytes 01:13:46.555
12 1:17:21.003 0:05:44.177 19193 kbps 29843 kbps 01:17:50.699 28130 kbps 01:17:48.096 26451 kbps 01:17:47.295 80049 bytes 315820 bytes 01:21:14.970
13 1:23:05.180 0:07:46.466 16253 kbps 24844 kbps 01:25:19.747 22410 kbps 01:25:19.747 21818 kbps 01:30:41.636 67787 bytes 278013 bytes 01:26:48.102
14 1:30:51.646 0:04:19.926 19691 kbps 25176 kbps 01:33:55.863 23108 kbps 01:32:42.924 21892 kbps 01:32:38.619 82129 bytes 292891 bytes 01:34:17.651
15 1:35:11.572 0:10:12.111 21011 kbps 28347 kbps 01:36:31.719 27772 kbps 01:36:31.785 25135 kbps 01:36:27.114 87633 bytes 322311 bytes 01:35:23.584
16 1:45:23.684 0:07:14.000 20341 kbps 27863 kbps 01:51:59.212 25571 kbps 01:51:55.141 24692 kbps 01:51:50.136 84841 bytes 316186 bytes 01:50:50.143
17 1:52:37.684 0:14:25.464 21575 kbps 32980 kbps 01:57:54.867 31027 kbps 01:57:04.217 30275 kbps 01:57:47.360 89985 bytes 350258 bytes 02:04:25.624
18 2:07:03.148 0:05:40.840 20185 kbps 27542 kbps 02:09:58.824 26379 kbps 02:09:54.987 25906 kbps 02:09:49.815 84188 bytes 332611 bytes 02:10:24.983
19 2:12:43.989 1:18:24.599 1712 kbps 25084 kbps 02:15:47.906 24167 kbps 02:15:48.106 22753 kbps 02:17:55.600 82251 bytes 317942 bytes 02:15:59.784

STREAM DIAGNOSTICS:

File PID Type Codec Language Seconds Bitrate Bytes Packets
---- --- ---- ----- -------- -------------- -------------- ------------- -----
00008.M2TS 4113 (0x1011) 0x1B AVC 4640,870 19998 11600783922 63128817
00008.M2TS 4352 (0x1100) 0x80 LPCM deu (German) 4640,870 2310 1340322244 7425608
00008.M2TS 4353 (0x1101) 0x86 DTS-HD MA deu (German) 4640,870 3858 2238047924 12886983
00008.M2TS 4608 (0x1200) 0x90 PGS eng (English) 4640,870 23 13214631 76467
00008.M2TS 4609 (0x1201) 0x90 PGS fra (French) 4640,870 23 13186719 76320
00008.M2TS 4610 (0x1202) 0x90 PGS deu (German) 4640,870 26 15320479 87927
00008.M2TS 4611 (0x1203) 0x90 PGS spa (Spanish) 4640,870 24 14173704 81675
00008.M2TS 4612 (0x1204) 0x90 PGS zho (Chinese) 4640,870 28 16316795 93334
00009.M2TS 4113 (0x1011) 0x1B AVC 3731,294 19994 9325250267 50746086
00009.M2TS 4352 (0x1100) 0x80 LPCM deu (German) 3731,294 2310 1077636984 5970288
00009.M2TS 4353 (0x1101) 0x86 DTS-HD MA deu (German) 3731,294 3942 1838797860 10575269
00009.M2TS 4608 (0x1200) 0x90 PGS eng (English) 3731,294 25 11481643 66523
00009.M2TS 4609 (0x1201) 0x90 PGS fra (French) 3731,294 25 11507317 66679
00009.M2TS 4610 (0x1202) 0x90 PGS deu (German) 3731,294 28 13185112 75785
00009.M2TS 4611 (0x1203) 0x90 PGS spa (Spanish) 3731,294 26 12281519 70892
00009.M2TS 4612 (0x1204) 0x90 PGS zho (Chinese) 3731,294 35 16440865 93480
00010.M2TS 4113 (0x1011) 0x1B AVC 4296,025 19990 10734778224 58416137
00010.M2TS 4352 (0x1100) 0x80 LPCM deu (German) 4296,025 2310 1240731008 6873856
00010.M2TS 4353 (0x1101) 0x86 DTS-HD MA deu (German) 4296,025 3921 2105396396 12112558
00010.M2TS 4608 (0x1200) 0x90 PGS eng (English) 4296,025 16 8393642 48836
00010.M2TS 4609 (0x1201) 0x90 PGS fra (French) 4296,025 16 8497060 49406
00010.M2TS 4610 (0x1202) 0x90 PGS deu (German) 4296,025 18 9838135 56689
00010.M2TS 4611 (0x1203) 0x90 PGS spa (Spanish) 4296,025 17 9149440 52944
00010.M2TS 4612 (0x1204) 0x90 PGS zho (Chinese) 4296,025 19 10461551 60065[/code]
<---- END FORUMS PASTE ---->

QUICK SUMMARY:

Disc Title:
Disc Size: 48423955384 bytes
Protection: AACS
BD-Java: No
Playlist: 00003.MPLS
Size: 29146116096 bytes
Length: 3:31:08
Total Bitrate: 18,41 Mbps
Video: MPEG-4 AVC Video / 19995 kbps / 1080i / 29,970 fps / 16:9 / High Profile 4.1
Audio: German / DTS-HD Master Audio / 5.1 / 48 kHz / 3895 kbps / 24-bit (DTS Core: 5.1 / 48 kHz / 1509 kbps / 24-bit)
Audio: German / LPCM Audio / 2.0 / 48 kHz / 2304 kbps / 24-bit
Subtitle: English / 23,598 kbps
Subtitle: Chinese / 31,301 kbps
Subtitle: French / 23,596 kbps
Subtitle: German / 27,238 kbps
Subtitle: Spanish / 25,278 kbps

********************
PLAYLIST: 00004.MPLS
********************

<--- BEGIN FORUMS PASTE --->
[code]Total Video
Title Codec Length Movie Size Disc Size Bitrate Bitrate Main Audio Track Secondary Audio Track
----- ------ ------- -------------- -------------- ------- ------- ------------------ ---------------------
00004.MPLS AVC 0:32:06 3634544640 48423955384 15,10 12,00 LPCM 2.0 2304Kbps (48kHz/24-bit)[/code]
[code]DISC INFO:

Disc Title:
Disc Size: 48423955384 bytes
Protection: AACS
BD-Java: No
BDInfo: 0.5.3

PLAYLIST REPORT:

Name: 00004.MPLS
Length: 0:32:06 (h:m:s)
Size: 3634544640 bytes
Total Bitrate: 15,10 Mbps

VIDEO:

Codec Bitrate Description
----- ------- -----------
MPEG-4 AVC Video 11997 kbps 1080i / 29,970 fps / 16:9 / High Profile 4.1

AUDIO:

Codec Language Bitrate Description
----- -------- ------- -----------
LPCM Audio English 2304 kbps 2.0 / 48 kHz / 2304 kbps / 24-bit

SUBTITLES:

Codec Language Bitrate Description
----- -------- ------- -----------
Presentation Graphics English 38,771 kbps

FILES:

Name Time In Length Size Total Bitrate
---- ------- ------ ---- -------------
00011.M2TS 0:00:00.000 0:32:06.024 3634544640 15097

CHAPTERS:

Number Time In Length Avg Video Rate Max 1-Sec Rate Max 1-Sec Time Max 5-Sec Rate Max 5-Sec Time Max 10Sec Rate Max 10Sec Time Avg Frame Size Max Frame Size Max Frame Time
------ ------- ------ -------------- -------------- -------------- -------------- -------------- -------------- -------------- -------------- -------------- --------------
1 0:00:00.000 0:05:40.206 11628 kbps 22552 kbps 00:05:07.473 21037 kbps 00:05:05.104 19586 kbps 00:05:03.436 48492 bytes 319958 bytes 00:05:08.474
2 0:05:40.206 0:04:15.054 12701 kbps 27415 kbps 00:06:22.281 21387 kbps 00:06:29.856 20228 kbps 00:06:22.248 52975 bytes 321147 bytes 00:06:24.150
3 0:09:55.261 0:04:47.020 12690 kbps 24196 kbps 00:12:53.906 22702 kbps 00:12:51.103 20930 kbps 00:12:50.436 52929 bytes 296194 bytes 00:12:54.673
4 0:14:42.281 0:04:12.785 11004 kbps 19072 kbps 00:18:17.930 16473 kbps 00:18:13.792 15149 kbps 00:18:33.812 45894 bytes 238035 bytes 00:14:57.830
5 0:18:55.067 0:05:50.483 13073 kbps 25079 kbps 00:20:27.192 22916 kbps 00:20:23.855 22007 kbps 00:20:11.944 54525 bytes 304747 bytes 00:22:59.511
6 0:24:45.550 0:03:32.345 11774 kbps 18530 kbps 00:27:42.761 17405 kbps 00:25:28.593 17351 kbps 00:25:28.593 49106 bytes 266986 bytes 00:28:16.895
7 0:28:17.896 0:03:48.127 10542 kbps 19404 kbps 00:28:19.497 16406 kbps 00:30:28.226 15126 kbps 00:30:23.254 43975 bytes 272326 bytes 00:28:18.897

STREAM DIAGNOSTICS:

File PID Type Codec Language Seconds Bitrate Bytes Packets
---- --- ---- ----- -------- -------------- -------------- ------------- -----
00011.M2TS 4113 (0x1011) 0x1B AVC 1925,924 11997 2888255640 15730628
00011.M2TS 4352 (0x1100) 0x80 LPCM eng (English) 1925,924 2311 556236020 3081640
00011.M2TS 4608 (0x1200) 0x90 PGS eng (English) 1925,924 39 9334315 53117[/code]
<---- END FORUMS PASTE ---->

QUICK SUMMARY:

Disc Title:
Disc Size: 48423955384 bytes
Protection: AACS
BD-Java: No
Playlist: 00004.MPLS
Size: 3634544640 bytes
Length: 0:32:06
Total Bitrate: 15,10 Mbps
Video: MPEG-4 AVC Video / 11997 kbps / 1080i / 29,970 fps / 16:9 / High Profile 4.1
Audio: English / LPCM Audio / 2.0 / 48 kHz / 2304 kbps / 24-bit
Subtitle: English / 38,771 kbps

********************
PLAYLIST: 00000.MPLS
********************

<--- BEGIN FORUMS PASTE --->
[code]Total Video
Title Codec Length Movie Size Disc Size Bitrate Bitrate Main Audio Track Secondary Audio Track
----- ------ ------- -------------- -------------- ------- ------- ------------------ ---------------------
00000.MPLS AVC 0:00:36 121442304 48423955384 26,40 20,68 DTS-HD Master 5.1 2904Kbps (48kHz/24-bit) LPCM 2.0 2304Kbps (48kHz/24-bit)[/code]
[code]DISC INFO:

Disc Title:
Disc Size: 48423955384 bytes
Protection: AACS
BD-Java: No
BDInfo: 0.5.3

PLAYLIST REPORT:

Name: 00000.MPLS
Length: 0:00:36 (h:m:s)
Size: 121442304 bytes
Total Bitrate: 26,40 Mbps

VIDEO:

Codec Bitrate Description
----- ------- -----------
MPEG-4 AVC Video 20681 kbps 1080i / 29,970 fps / 16:9 / High Profile 4.1

AUDIO:

Codec Language Bitrate Description
----- -------- ------- -----------
DTS-HD Master Audio Miscellaneous languages2904 kbps 5.1 / 48 kHz / 2904 kbps / 24-bit (DTS Core: 5.1 / 48 kHz / 1509 kbps / 24-bit)
LPCM Audio Miscellaneous languages2304 kbps 2.0 / 48 kHz / 2304 kbps / 24-bit

FILES:

Name Time In Length Size Total Bitrate
---- ------- ------ ---- -------------
00000.M2TS 0:00:00.000 0:00:12.512 23543808 15053
00001.M2TS 0:00:12.512 0:00:23.289 97867776 33617
00002.M2TS 0:00:35.802 0:00:01.000 30720 246

CHAPTERS:

Number Time In Length Avg Video Rate Max 1-Sec Rate Max 1-Sec Time Max 5-Sec Rate Max 5-Sec Time Max 10Sec Rate Max 10Sec Time Avg Frame Size Max Frame Size Max Frame Time
------ ------- ------ -------------- -------------- -------------- -------------- -------------- -------------- -------------- -------------- -------------- --------------
1 0:00:00.000 0:00:35.802 21256 kbps 29763 kbps 00:00:22.188 28204 kbps 00:00:19.586 27568 kbps 00:00:16.349 88574 bytes 347568 bytes 00:00:24.524
2 0:00:35.802 0:00:01.000 111 kbps 0 kbps 00:00:00.000 0 kbps 00:00:00.000 0 kbps 00:00:00.000 478 bytes 2435 bytes 00:00:36.403

STREAM DIAGNOSTICS:

File PID Type Codec Language Seconds Bitrate Bytes Packets
---- --- ---- ----- -------- -------------- -------------- ------------- -----
00000.M2TS 4113 (0x1011) 0x1B AVC 12,379 14507 22447353 122204
00001.M2TS 4113 (0x1011) 0x1B AVC 23,156 25109 72679016 395421
00001.M2TS 4352 (0x1100) 0x80 LPCM mis (Miscellaneous languages)23,156 2324 6726152 37264
00001.M2TS 4353 (0x1101) 0x86 DTS-HD MA mis (Miscellaneous languages)23,156 4615 13359112 76232
00002.M2TS 4113 (0x1011) 0x1B AVC 0,901 145 16291 112[/code]
<---- END FORUMS PASTE ---->

QUICK SUMMARY:

Disc Title:
Disc Size: 48423955384 bytes
Protection: AACS
BD-Java: No
Playlist: 00000.MPLS
Size: 121442304 bytes
Length: 0:00:36
Total Bitrate: 26,40 Mbps
Video: MPEG-4 AVC Video / 20681 kbps / 1080i / 29,970 fps / 16:9 / High Profile 4.1
Audio: Miscellaneous languages / DTS-HD Master Audio / 5.1 / 48 kHz / 2904 kbps / 24-bit (DTS Core: 5.1 / 48 kHz / 1509 kbps / 24-bit)
Audio: Miscellaneous languages / LPCM Audio / 2.0 / 48 kHz / 2304 kbps / 24-bit


 ·  , , FAQ-
:  [ 27--2011 21:08 ]

  

.torrent

.torrent 231 KB


: 45.1 GB
(hash) : 7ab60f2a325d99a434f659a67728476c5237b116
··
...

Richard Strauss - Der Rosenkavalier - . !

!