Скачать через торрент музыку Гендель - Тамерлан Handel - Tamerlano бесплатно без регистрации torrent

Если у вас наблюдаются проблемы со скриншотами, переходом по ссылками, скачиванием торрентов - проблемы в блокировщике рекламы AdBlock. #хорошегоДня!


Статистика раздачи
Размер:  62.61 GB   |    Зарегистрирован:  5 лет 11 месяцев   |    .torrent скачан:  112 раз   |   
Раздают:  1  
   
Загрузка...
 
Автор Сообщение

L


Гендель: Тамерлан

Год выпуска: 2009
Лейбл: Opus Arte
Страна-производитель: США
Жанр: Opera baroque
Продолжительность: Disc1 02:25:25 + Disc2 01:12:49 │ 3h.38’41” (Opera) , 0h.23’37” (Bonus)
Язык: Italian (Opera) │ English (Bonus)
Субтитры: English, French, German, Spanish, Italian (Opera)
French, German, Spanish, Italian (Bonus)
Режиссер/Хореограф/Дирижёр: Graham Vick / Ron Howell / Paul McCreesh
Дата релиза DVD: April 28, 2009
Место и дата премьеры настоящего спектакля: Teatro della Pergola, Florence, May 17, 2001
Исполнители:
Handel

Tamerlano

Opera in three acts
Libretto by Nicola Francesco Haym,
after Agostino Piovene’s ‘Il Tamerlano’ and ‘Il Bajazet’,
both set by Gasparini, based on the play by Jacques Pradon,
‘Tamerlan, ou La Mort de Bajazet’

Bajazet - Plácido Domingo
Tamerlano - Monica Bacelli
Asteria - Ingela Bohlin
Andronico - Sara Mingardo
Irene - Jennifer Holloway
Leone - Luigi De Donato

Orchestra of the Teatro Real (Madrid Symphony Orchestra)
Continuo:
Harpsichord - Benjamin Bayl, Joseph McHardy
Cello - Christopher Suckling
Lute - Jorgen Skogmo
Musical Director - Paul McCreesh

Stage Director - Graham Vick

Set and Costume Designer - Richard Hudson
Lighting - Giuseppe di Lorio, based on original lighting design by Matthew Richardson
Choreographer - Ron Howell
Italian diction supervisor - Rita de Letteris
Production Maggio Musicale Fiorentino
Дополнительные материалы:
Illustrated Synopsis
Cast Gallery
Interview With Paul McCreesh
Качество видео: Blu-ray
BD-50 Dual-Layer Disc
BD-25 Single-Layer Disc
2-Disc Set
Формат/Контейнер: BDMV
Видео кодек: AVC MPEG-4
Аудио кодек: LPCM
Видео поток: 1080i (1920x1080)
Аудио поток: English LPCM 5.0 (48 kHz / 5760 kbps / 24-bit) ; English LPCM 2.0 (48 kHz / 2304 kbps / 24-bit) Полный тех. отчёт на оба диска (MediaInfo):
Общее
Полное имя : D:\Opera video\Handel\Handel - Tamerlano (2008, Opus Arte) BD50+25\MediaInfo_GUI_0.7.42_Windows_i386.exe
Формат : MZ
Профиль формата : Executable / Intel i386
Размер файла : 2,28 Мбайт
Дата кодирования : UTC 2009-12-05 22:50:46

Общее
Полное имя : D:\Opera video\Handel\Handel - Tamerlano (2008, Opus Arte) BD50+25\TAMERLANO DISK 1
Формат : Blu-ray movie
Продолжительность : 2 ч. 25 м.
Общий поток : 0

Видео
Идентификатор : 4113 (0x1011)
Идентификатор меню : 1 (0x1)
Формат : AVC
Формат/Информация : Advanced Video Codec
Профиль формата : High@L4.1
Параметр CABAC формата : Да
Параметр ReFrames формата : 4 кадры
Идентификатор кодека : 27
Продолжительность : 2 ч. 25 м.
Вид битрейта : Переменный
Битрейт : 27,4 Мбит/сек
Максимальный битрейт : 36,0 Мбит/сек
Ширина : 1920 пикс.
Высота : 1080 пикс.
Соотношение сторон : 16:9
Частота кадров : 29,970 кадр/сек
Стандарт вещания : NTSC
Цветовое пространство : YUV
Подвыборка цветности : 4:2:0
Битовая глубина : 8 бит
Размер потока : 27,9 Гбайт (72%)
Основные цвета : BT.709-5, BT.1361, IEC 61966-2-4, SMPTE RP177
Характеристики трансфера : BT.709-5, BT.1361
Коэффициенты матрицы : BT.709-5, BT.1361, IEC 61966-2-4 709, SMPTE RP177
Source : 00008.m2ts

Аудио #1
Идентификатор : 4352 (0x1100)
Формат : PCM
Продолжительность : 2 ч. 25 м.
Канал(ы) : 2 канала(ов)
Частота : 48,0 КГц
Язык : English

Аудио #2
Идентификатор : 4353 (0x1101)
Формат : PCM
Продолжительность : 2 ч. 25 м.
Частота : 48,0 КГц
Язык : English

Текст #1
Идентификатор : 4608 (0x1200)
Формат : PGS
Язык : English

Текст #2
Идентификатор : 4609 (0x1201)
Формат : PGS
Язык : French

Текст #3
Идентификатор : 4610 (0x1202)
Формат : PGS
Язык : German

Текст #4
Идентификатор : 4611 (0x1203)
Формат : PGS
Язык : Spanish

Текст #5
Идентификатор : 4612 (0x1204)
Формат : PGS
Язык : Italian

Меню
00:00:00.000 : Chapter 1
00:00:34.100 : Chapter 2
00:03:51.331 : Chapter 3
00:05:09.108 : Chapter 4
00:10:09.709 : Chapter 5
00:14:47.119 : Chapter 6
00:19:07.279 : Chapter 7
00:23:44.489 : Chapter 8
00:24:41.146 : Chapter 9
00:31:10.735 : Chapter 10
00:34:40.144 : Chapter 11
00:38:46.324 : Chapter 12
00:39:22.660 : Chapter 13
00:45:27.591 : Chapter 14
00:48:24.534 : Chapter 15
00:52:16.466 : Chapter 16
00:53:50.060 : Chapter 17
00:59:16.553 : Chapter 18
01:01:56.145 : Chapter 19
01:05:33.562 : Chapter 20
01:07:06.288 : Chapter 21
01:15:39.535 : Chapter 22
01:17:35.017 : Chapter 23
01:21:28.483 : Chapter 24
01:23:19.861 : Chapter 25
01:25:52.647 : Chapter 26
01:27:08.756 : Chapter 27
01:33:55.630 : Chapter 28
01:37:24.238 : Chapter 29
01:42:28.976 : Chapter 30
01:42:54.501 : Chapter 31
01:47:09.623 : Chapter 32
01:48:28.869 : Chapter 33
01:56:07.660 : Chapter 34
01:56:37.957 : Chapter 35
02:00:55.815 : Chapter 36
02:11:42.327 : Chapter 37
02:12:56.868 : Chapter 38
02:13:07.980 : Chapter 39
02:14:52.284 : Chapter 40
02:15:01.760 : Chapter 41
02:16:18.770 : Chapter 42
02:16:28.380 : Chapter 43
02:17:55.133 : Chapter 44
02:18:18.757 : Chapter 45
02:25:25.717 : Chapter 46

Общее
Полное имя : D:\Opera video\Handel\Handel - Tamerlano (2008, Opus Arte) BD50+25\TAMERLANO DISK 1\CERTIFICATE\BACKUP\id.bdmv
Размер файла : 104 байт

Общее
Полное имя : D:\Opera video\Handel\Handel - Tamerlano (2008, Opus Arte) BD50+25\TAMERLANO DISK 1\CERTIFICATE\id.bdmv
Размер файла : 104 байт

Общее
Полное имя : D:\Opera video\Handel\Handel - Tamerlano (2008, Opus Arte) BD50+25\TAMERLANO DISK 2\BDMV\BACKUP\CLIPINF\00000.clpi
Формат : Blu-ray Clip info
Размер файла : 484 байт

Видео
Идентификатор : 4113 (0x1011)
Формат : AVC
Формат/Информация : Advanced Video Codec
Ширина : 1920 пикс.
Высота : 1080 пикс.
Соотношение сторон : 16:9
Частота кадров : 29,970 кадр/сек

Общее
Полное имя : D:\Opera video\Handel\Handel - Tamerlano (2008, Opus Arte) BD50+25\TAMERLANO DISK 2\BDMV\BACKUP\CLIPINF\00001.clpi
Формат : Blu-ray Clip info
Размер файла : 388 байт

Видео
Идентификатор : 4113 (0x1011)
Формат : AVC
Формат/Информация : Advanced Video Codec
Ширина : 1920 пикс.
Высота : 1080 пикс.
Соотношение сторон : 16:9
Частота кадров : 29,970 кадр/сек

Общее
Полное имя : D:\Opera video\Handel\Handel - Tamerlano (2008, Opus Arte) BD50+25\TAMERLANO DISK 2\BDMV\BACKUP\CLIPINF\00002.clpi
Формат : Blu-ray Clip info
Размер файла : 292 байт

Общее
Полное имя : D:\Opera video\Handel\Handel - Tamerlano (2008, Opus Arte) BD50+25\TAMERLANO DISK 2\BDMV\BACKUP\CLIPINF\00003.clpi
Формат : Blu-ray Clip info
Размер файла : 720 байт

Видео
Идентификатор : 4113 (0x1011)
Формат : AVC
Формат/Информация : Advanced Video Codec
Ширина : 1920 пикс.
Высота : 1080 пикс.
Соотношение сторон : 16:9
Частота кадров : 29,970 кадр/сек

Общее
Полное имя : D:\Opera video\Handel\Handel - Tamerlano (2008, Opus Arte) BD50+25\TAMERLANO DISK 2\BDMV\BACKUP\CLIPINF\00004.clpi
Формат : Blu-ray Clip info
Размер файла : 292 байт

Общее
Полное имя : D:\Opera video\Handel\Handel - Tamerlano (2008, Opus Arte) BD50+25\TAMERLANO DISK 2\BDMV\BACKUP\CLIPINF\00005.clpi
Формат : Blu-ray Clip info
Размер файла : 29,6 Кбайт

Видео
Идентификатор : 4113 (0x1011)
Формат : AVC
Формат/Информация : Advanced Video Codec
Ширина : 1920 пикс.
Высота : 1080 пикс.
Соотношение сторон : 16:9
Частота кадров : 29,970 кадр/сек

Аудио #1
Идентификатор : 4352 (0x1100)
Формат : PCM
Канал(ы) : 2 канала(ов)
Частота : 48,0 КГц
Язык : English

Аудио #2
Идентификатор : 4353 (0x1101)
Формат : PCM
Частота : 48,0 КГц
Язык : English

Текст #1
Идентификатор : 4608 (0x1200)
Формат : PGS
Язык : English

Текст #2
Идентификатор : 4609 (0x1201)
Формат : PGS
Язык : French

Текст #3
Идентификатор : 4610 (0x1202)
Формат : PGS
Язык : German

Текст #4
Идентификатор : 4611 (0x1203)
Формат : PGS
Язык : Spanish

Текст #5
Идентификатор : 4612 (0x1204)
Формат : PGS
Язык : Italian

Общее
Полное имя : D:\Opera video\Handel\Handel - Tamerlano (2008, Opus Arte) BD50+25\TAMERLANO DISK 2\BDMV\BACKUP\index.bdmv
Формат : Blu-ray Index
Размер файла : 120 байт

Общее
Полное имя : D:\Opera video\Handel\Handel - Tamerlano (2008, Opus Arte) BD50+25\TAMERLANO DISK 2\BDMV\BACKUP\MovieObject.bdmv
Формат : Blu-ray Movie object
Размер файла : 374 байт

Общее
Полное имя : D:\Opera video\Handel\Handel - Tamerlano (2008, Opus Arte) BD50+25\TAMERLANO DISK 2\BDMV\BACKUP\PLAYLIST\00000.mpls
Формат : Blu-ray Playlist
Размер файла : 248 байт
Продолжительность : 20 с.
Общий поток : 94 бит/сек

Видео #1
Идентификатор : 4113 (0x1011)
Формат : AVC
Формат/Информация : Advanced Video Codec
Продолжительность : 20 с.
Ширина : 1920 пикс.
Высота : 1080 пикс.
Соотношение сторон : 16:9
Частота кадров : 29,970 кадр/сек

Видео #2
Идентификатор : 4113 (0x1011)
Формат : AVC
Формат/Информация : Advanced Video Codec
Продолжительность : 20 с.
Ширина : 1920 пикс.
Высота : 1080 пикс.
Соотношение сторон : 16:9
Частота кадров : 29,970 кадр/сек

Меню
00:00:00.000 : Chapter 1

Общее
Полное имя : D:\Opera video\Handel\Handel - Tamerlano (2008, Opus Arte) BD50+25\TAMERLANO DISK 2\BDMV\BACKUP\PLAYLIST\00001.mpls
Формат : Blu-ray Playlist
Размер файла : 210 байт
Продолжительность : 59 с.
Общий поток : 28 бит/сек

Видео
Идентификатор : 4113 (0x1011)
Формат : AVC
Формат/Информация : Advanced Video Codec
Продолжительность : 59 с.
Ширина : 1920 пикс.
Высота : 1080 пикс.
Соотношение сторон : 16:9
Частота кадров : 29,970 кадр/сек

Меню
00:00:00.000 : Chapter 1

Общее
Полное имя : D:\Opera video\Handel\Handel - Tamerlano (2008, Opus Arte) BD50+25\TAMERLANO DISK 2\BDMV\BACKUP\PLAYLIST\00002.mpls
Формат : Blu-ray Playlist
Размер файла : 700 байт
Продолжительность : 1 ч. 12 м.
Общий поток : 1 бит/сек

Видео
Идентификатор : 4113 (0x1011)
Формат : AVC
Формат/Информация : Advanced Video Codec
Продолжительность : 1 ч. 12 м.
Ширина : 1920 пикс.
Высота : 1080 пикс.
Соотношение сторон : 16:9
Частота кадров : 29,970 кадр/сек

Аудио #1
Идентификатор : 4352 (0x1100)
Формат : PCM
Продолжительность : 1 ч. 12 м.
Канал(ы) : 2 канала(ов)
Частота : 48,0 КГц
Язык : English

Аудио #2
Идентификатор : 4353 (0x1101)
Формат : PCM
Продолжительность : 1 ч. 12 м.
Частота : 48,0 КГц
Язык : English

Текст #1
Идентификатор : 4608 (0x1200)
Формат : PGS
Язык : English

Текст #2
Идентификатор : 4609 (0x1201)
Формат : PGS
Язык : French

Текст #3
Идентификатор : 4610 (0x1202)
Формат : PGS
Язык : German

Текст #4
Идентификатор : 4611 (0x1203)
Формат : PGS
Язык : Spanish

Текст #5
Идентификатор : 4612 (0x1204)
Формат : PGS
Язык : Italian

Меню
00:00:00.000 : Chapter 1
00:00:31.965 : Chapter 2
00:02:30.984 : Chapter 3
00:05:14.080 : Chapter 4
00:10:46.178 : Chapter 5
00:15:50.416 : Chapter 6
00:17:15.868 : Chapter 7
00:23:46.191 : Chapter 8
00:25:48.813 : Chapter 9
00:29:05.877 : Chapter 10
00:32:42.126 : Chapter 11
00:33:14.125 : Chapter 12
00:37:47.798 : Chapter 13
00:38:32.710 : Chapter 14
00:39:56.293 : Chapter 15
00:44:08.479 : Chapter 16
00:46:22.112 : Chapter 17
00:47:11.795 : Chapter 18
00:49:55.993 : Chapter 19
00:50:19.850 : Chapter 20
00:51:22.412 : Chapter 21
00:57:49.799 : Chapter 22
00:59:35.805 : Chapter 23
01:03:56.132 : Chapter 24
01:04:37.506 : Chapter 25
01:07:51.000 : Chapter 26
01:11:12.268 : Chapter 27
01:12:49.365 : Chapter 28

Общее
Идентификатор : 0 (0x0)
Полное имя : D:\Opera video\Handel\Handel - Tamerlano (2008, Opus Arte) BD50+25\TAMERLANO DISK 2\BDMV\CLIPINF\00000.clpi
Формат : Blu-ray Clip info
Размер файла : 484 байт
Продолжительность : 13 с.
Общий поток : 9393 Кбит/сек
Максимальный общий битрейт : 48,0 Мбит/сек

Видео
Идентификатор : 4113 (0x1011)
Идентификатор меню : 1 (0x1)
Формат : AVC
Формат/Информация : Advanced Video Codec
Профиль формата : High@L4.1
Параметр CABAC формата : Да
Параметр ReFrames формата : 4 кадры
Идентификатор кодека : 27
Продолжительность : 14 с.
Вид битрейта : Постоянный
Битрейт : 9014 Кбит/сек
Номинальный битрейт : 10000 Кбит/сек
Ширина : 1920 пикс.
Высота : 1080 пикс.
Соотношение сторон : 16:9
Частота кадров : 29,970 кадр/сек
Стандарт вещания : NTSC
Цветовое пространство : YUV
Подвыборка цветности : 4:2:0
Битовая глубина : 8 бит
Тип развёртки : MBAFF
Бит/(Пиксели*Кадры) : 0.145
Размер потока : 15,1 Мбайт (96%)
Основные цвета : BT.709-5, BT.1361, IEC 61966-2-4, SMPTE RP177
Характеристики трансфера : BT.709-5, BT.1361
Коэффициенты матрицы : BT.709-5, BT.1361, IEC 61966-2-4 709, SMPTE RP177
Source : 00000.m2ts

Общее
Идентификатор : 0 (0x0)
Полное имя : D:\Opera video\Handel\Handel - Tamerlano (2008, Opus Arte) BD50+25\TAMERLANO DISK 2\BDMV\CLIPINF\00001.clpi
Формат : Blu-ray Clip info
Размер файла : 388 байт
Продолжительность : 6 с. 840 мс.
Общий поток : 20,2 Мбит/сек
Максимальный общий битрейт : 48,0 Мбит/сек

Видео
Идентификатор : 4113 (0x1011)
Идентификатор меню : 1 (0x1)
Формат : AVC
Формат/Информация : Advanced Video Codec
Профиль формата : High@L4.1
Параметр CABAC формата : Да
Параметр ReFrames формата : 4 кадры
Идентификатор кодека : 27
Продолжительность : 6 с. 940 мс.
Вид битрейта : Постоянный
Битрейт : 20,0 Мбит/сек
Ширина : 1920 пикс.
Высота : 1080 пикс.
Соотношение сторон : 16:9
Частота кадров : 29,970 кадр/сек
Стандарт вещания : NTSC
Цветовое пространство : YUV
Подвыборка цветности : 4:2:0
Битовая глубина : 8 бит
Тип развёртки : MBAFF
Бит/(Пиксели*Кадры) : 0.322
Размер потока : 16,0 Мбайт (96%)
Основные цвета : BT.709-5, BT.1361, IEC 61966-2-4, SMPTE RP177
Характеристики трансфера : BT.709-5, BT.1361
Коэффициенты матрицы : BT.709-5, BT.1361, IEC 61966-2-4 709, SMPTE RP177
Source : 00001.m2ts

Общее
Идентификатор : 0 (0x0)
Полное имя : D:\Opera video\Handel\Handel - Tamerlano (2008, Opus Arte) BD50+25\TAMERLANO DISK 2\BDMV\CLIPINF\00002.clpi
Формат : Blu-ray Clip info
Размер файла : 292 байт
Продолжительность : 2 с. 70 мс.
Общий поток : 2297 Кбит/сек
Максимальный общий битрейт : 48,0 Мбит/сек

Общее
Идентификатор : 0 (0x0)
Полное имя : D:\Opera video\Handel\Handel - Tamerlano (2008, Opus Arte) BD50+25\TAMERLANO DISK 2\BDMV\CLIPINF\00003.clpi
Формат : Blu-ray Clip info
Размер файла : 720 байт
Продолжительность : 59 с.
Общий поток : 31,4 Мбит/сек
Максимальный общий битрейт : 48,0 Мбит/сек

Видео
Идентификатор : 4113 (0x1011)
Идентификатор меню : 1 (0x1)
Формат : AVC
Формат/Информация : Advanced Video Codec
Профиль формата : High@L4.1
Параметр CABAC формата : Да
Параметр ReFrames формата : 4 кадры
Идентификатор кодека : 27
Продолжительность : 59 с.
Вид битрейта : Постоянный
Битрейт : 30,0 Мбит/сек
Ширина : 1920 пикс.
Высота : 1080 пикс.
Соотношение сторон : 16:9
Частота кадров : 29,970 кадр/сек
Стандарт вещания : NTSC
Цветовое пространство : YUV
Подвыборка цветности : 4:2:0
Битовая глубина : 8 бит
Тип развёртки : MBAFF
Бит/(Пиксели*Кадры) : 0.483
Размер потока : 215 Мбайт (96%)
Основные цвета : BT.709-5, BT.1361, IEC 61966-2-4, SMPTE RP177
Характеристики трансфера : BT.709-5, BT.1361
Коэффициенты матрицы : BT.709-5, BT.1361, IEC 61966-2-4 709, SMPTE RP177
Source : 00003.m2ts

Общее
Идентификатор : 0 (0x0)
Полное имя : D:\Opera video\Handel\Handel - Tamerlano (2008, Opus Arte) BD50+25\TAMERLANO DISK 2\BDMV\CLIPINF\00004.clpi
Формат : Blu-ray Clip info
Размер файла : 292 байт
Продолжительность : 4 с. 860 мс.
Общий поток : 4524 Кбит/сек
Максимальный общий битрейт : 48,0 Мбит/сек

Общее
Идентификатор : 0 (0x0)
Полное имя : D:\Opera video\Handel\Handel - Tamerlano (2008, Opus Arte) BD50+25\TAMERLANO DISK 2\BDMV\CLIPINF\00005.clpi
Формат : Blu-ray Clip info
Размер файла : 29,6 Кбайт
Продолжительность : 1 ч. 12 м.
Общий поток : 41,3 Мбит/сек
Максимальный общий битрейт : 48,0 Мбит/сек

Видео
Идентификатор : 4113 (0x1011)
Идентификатор меню : 1 (0x1)
Формат : AVC
Формат/Информация : Advanced Video Codec
Профиль формата : High@L4.1
Параметр CABAC формата : Да
Параметр ReFrames формата : 4 кадры
Идентификатор кодека : 27
Продолжительность : 1 ч. 12 м.
Вид битрейта : Переменный
Битрейт : 30,5 Мбит/сек
Максимальный битрейт : 36,0 Мбит/сек
Ширина : 1920 пикс.
Высота : 1080 пикс.
Соотношение сторон : 16:9
Частота кадров : 29,970 кадр/сек
Стандарт вещания : NTSC
Цветовое пространство : YUV
Подвыборка цветности : 4:2:0
Битовая глубина : 8 бит
Тип развёртки : MBAFF
Бит/(Пиксели*Кадры) : 0.490
Размер потока : 15,5 Гбайт (74%)
Основные цвета : BT.709-5, BT.1361, IEC 61966-2-4, SMPTE RP177
Характеристики трансфера : BT.709-5, BT.1361
Коэффициенты матрицы : BT.709-5, BT.1361, IEC 61966-2-4 709, SMPTE RP177
Source : 00005.m2ts

Аудио #1
Идентификатор : 4352 (0x1100)
Идентификатор меню : 1 (0x1)
Формат : PCM
Параметр Endianness формата : Big
Параметр Sign формата : Signed
Режим смешивания : Blu-ray
Идентификатор кодека : 128
Продолжительность : 1 ч. 12 м.
Вид битрейта : Постоянный
Битрейт : 2304 Кбит/сек
Канал(ы) : 2 канала(ов)
Расположение каналов : Front: L R
Частота : 48,0 КГц
Битовая глубина : 24 бит
Размер потока : 1,17 Гбайт (6%)
Язык : English
Source : 00005.m2ts

Аудио #2
Идентификатор : 4353 (0x1101)
Идентификатор меню : 1 (0x1)
Формат : PCM
Параметр Endianness формата : Big
Параметр Sign формата : Signed
Режим смешивания : Blu-ray
Идентификатор кодека : 128
Продолжительность : 1 ч. 12 м.
Вид битрейта : Постоянный
Битрейт : 6912 Кбит/сек
Канал(ы) : 5 канала(ов)
Расположение каналов : Front: L R, Side: L R, LFE
Частота : 48,0 КГц
Битовая глубина : 24 бит
Размер потока : 3,52 Гбайт (17%)
Язык : English
Source : 00005.m2ts

Текст #1
Идентификатор : 4608 (0x1200)
Формат : PGS
Язык : English

Текст #2
Идентификатор : 4609 (0x1201)
Формат : PGS
Язык : French

Текст #3
Идентификатор : 4610 (0x1202)
Формат : PGS
Язык : German

Текст #4
Идентификатор : 4611 (0x1203)
Формат : PGS
Язык : Spanish

Текст #5
Идентификатор : 4612 (0x1204)
Формат : PGS
Язык : Italian

Общее
Полное имя : D:\Opera video\Handel\Handel - Tamerlano (2008, Opus Arte) BD50+25\TAMERLANO DISK 2\BDMV\index.bdmv
Формат : Blu-ray Index
Размер файла : 120 байт

Общее
Полное имя : D:\Opera video\Handel\Handel - Tamerlano (2008, Opus Arte) BD50+25\TAMERLANO DISK 2\BDMV\MovieObject.bdmv
Формат : Blu-ray Movie object
Размер файла : 374 байт

Общее
Полное имя : D:\Opera video\Handel\Handel - Tamerlano (2008, Opus Arte) BD50+25\TAMERLANO DISK 2\BDMV\PLAYLIST\00000.mpls
Формат : Blu-ray Playlist
Размер файла : 248 байт
Продолжительность : 20 с.
Общий поток : 94 бит/сек

Видео #1
Идентификатор : 4113 (0x1011)
Идентификатор меню : 1 (0x1)
Формат : AVC
Формат/Информация : Advanced Video Codec
Профиль формата : High@L4.1
Параметр CABAC формата : Да
Параметр ReFrames формата : 4 кадры
Идентификатор кодека : 27
Продолжительность : 6 с. 940 мс.
Вид битрейта : Постоянный
Битрейт : 20,0 Мбит/сек
Номинальный битрейт : 10000 Кбит/сек
Ширина : 1920 пикс.
Высота : 1080 пикс.
Соотношение сторон : 16:9
Частота кадров : 29,970 кадр/сек
Стандарт вещания : NTSC
Цветовое пространство : YUV
Подвыборка цветности : 4:2:0
Битовая глубина : 8 бит
Тип развёртки : MBAFF
Бит/(Пиксели*Кадры) : 0.322
Размер потока : 16,0 Мбайт (96%)
Основные цвета : BT.709-5, BT.1361, IEC 61966-2-4, SMPTE RP177
Характеристики трансфера : BT.709-5, BT.1361
Коэффициенты матрицы : BT.709-5, BT.1361, IEC 61966-2-4 709, SMPTE RP177
Source : 00001.m2ts

Видео #2
Идентификатор : 4113 (0x1011)
Формат : AVC
Формат/Информация : Advanced Video Codec
Продолжительность : 20 с.
Ширина : 1920 пикс.
Высота : 1080 пикс.
Соотношение сторон : 16:9
Частота кадров : 29,970 кадр/сек

Меню
00:00:00.000 : Chapter 1

Общее
Полное имя : D:\Opera video\Handel\Handel - Tamerlano (2008, Opus Arte) BD50+25\TAMERLANO DISK 2\BDMV\PLAYLIST\00001.mpls
Формат : Blu-ray Playlist
Размер файла : 210 байт
Продолжительность : 59 с.
Общий поток : 28 бит/сек

Видео
Идентификатор : 4113 (0x1011)
Идентификатор меню : 1 (0x1)
Формат : AVC
Формат/Информация : Advanced Video Codec
Профиль формата : High@L4.1
Параметр CABAC формата : Да
Параметр ReFrames формата : 4 кадры
Идентификатор кодека : 27
Продолжительность : 59 с.
Вид битрейта : Постоянный
Битрейт : 30,0 Мбит/сек
Ширина : 1920 пикс.
Высота : 1080 пикс.
Соотношение сторон : 16:9
Частота кадров : 29,970 кадр/сек
Стандарт вещания : NTSC
Цветовое пространство : YUV
Подвыборка цветности : 4:2:0
Битовая глубина : 8 бит
Тип развёртки : MBAFF
Бит/(Пиксели*Кадры) : 0.483
Размер потока : 215 Мбайт (96%)
Основные цвета : BT.709-5, BT.1361, IEC 61966-2-4, SMPTE RP177
Характеристики трансфера : BT.709-5, BT.1361
Коэффициенты матрицы : BT.709-5, BT.1361, IEC 61966-2-4 709, SMPTE RP177
Source : 00003.m2ts

Меню
00:00:00.000 : Chapter 1

Общее
Полное имя : D:\Opera video\Handel\Handel - Tamerlano (2008, Opus Arte) BD50+25\TAMERLANO DISK 2\BDMV\PLAYLIST\00002.mpls
Формат : Blu-ray Playlist
Размер файла : 700 байт
Продолжительность : 1 ч. 12 м.
Общий поток : 1 бит/сек

Видео
Идентификатор : 4113 (0x1011)
Идентификатор меню : 1 (0x1)
Формат : AVC
Формат/Информация : Advanced Video Codec
Профиль формата : High@L4.1
Параметр CABAC формата : Да
Параметр ReFrames формата : 4 кадры
Идентификатор кодека : 27
Продолжительность : 1 ч. 12 м.
Вид битрейта : Переменный
Битрейт : 30,5 Мбит/сек
Максимальный битрейт : 36,0 Мбит/сек
Ширина : 1920 пикс.
Высота : 1080 пикс.
Соотношение сторон : 16:9
Частота кадров : 29,970 кадр/сек
Стандарт вещания : NTSC
Цветовое пространство : YUV
Подвыборка цветности : 4:2:0
Битовая глубина : 8 бит
Тип развёртки : MBAFF
Бит/(Пиксели*Кадры) : 0.490
Размер потока : 15,5 Гбайт (74%)
Основные цвета : BT.709-5, BT.1361, IEC 61966-2-4, SMPTE RP177
Характеристики трансфера : BT.709-5, BT.1361
Коэффициенты матрицы : BT.709-5, BT.1361, IEC 61966-2-4 709, SMPTE RP177
Source : 00005.m2ts

Аудио #1
Идентификатор : 4352 (0x1100)
Формат : PCM
Продолжительность : 1 ч. 12 м.
Канал(ы) : 2 канала(ов)
Частота : 48,0 КГц
Язык : English

Аудио #2
Идентификатор : 4353 (0x1101)
Формат : PCM
Продолжительность : 1 ч. 12 м.
Частота : 48,0 КГц
Язык : English

Текст #1
Идентификатор : 4608 (0x1200)
Формат : PGS
Язык : English

Текст #2
Идентификатор : 4609 (0x1201)
Формат : PGS
Язык : French

Текст #3
Идентификатор : 4610 (0x1202)
Формат : PGS
Язык : German

Текст #4
Идентификатор : 4611 (0x1203)
Формат : PGS
Язык : Spanish

Текст #5
Идентификатор : 4612 (0x1204)
Формат : PGS
Язык : Italian

Меню
00:00:00.000 : Chapter 1
00:00:31.965 : Chapter 2
00:02:30.984 : Chapter 3
00:05:14.080 : Chapter 4
00:10:46.178 : Chapter 5
00:15:50.416 : Chapter 6
00:17:15.868 : Chapter 7
00:23:46.191 : Chapter 8
00:25:48.813 : Chapter 9
00:29:05.877 : Chapter 10
00:32:42.126 : Chapter 11
00:33:14.125 : Chapter 12
00:37:47.798 : Chapter 13
00:38:32.710 : Chapter 14
00:39:56.293 : Chapter 15
00:44:08.479 : Chapter 16
00:46:22.112 : Chapter 17
00:47:11.795 : Chapter 18
00:49:55.993 : Chapter 19
00:50:19.850 : Chapter 20
00:51:22.412 : Chapter 21
00:57:49.799 : Chapter 22
00:59:35.805 : Chapter 23
01:03:56.132 : Chapter 24
01:04:37.506 : Chapter 25
01:07:51.000 : Chapter 26
01:11:12.268 : Chapter 27
01:12:49.365 : Chapter 28

Общее
Идентификатор : 0 (0x0)
Полное имя : D:\Opera video\Handel\Handel - Tamerlano (2008, Opus Arte) BD50+25\TAMERLANO DISK 2\BDMV\STREAM\00000.m2ts
Формат : BDAV
Формат/Информация : Blu-ray Video
Размер файла : 15,7 Мбайт
Продолжительность : 13 с.
Общий поток : 9393 Кбит/сек
Максимальный общий битрейт : 48,0 Мбит/сек

Видео
Идентификатор : 4113 (0x1011)
Идентификатор меню : 1 (0x1)
Формат : AVC
Формат/Информация : Advanced Video Codec
Профиль формата : High@L4.1
Параметр CABAC формата : Да
Параметр ReFrames формата : 4 кадры
Идентификатор кодека : 27
Продолжительность : 14 с.
Вид битрейта : Постоянный
Битрейт : 9014 Кбит/сек
Номинальный битрейт : 10000 Кбит/сек
Ширина : 1920 пикс.
Высота : 1080 пикс.
Соотношение сторон : 16:9
Частота кадров : 29,970 кадр/сек
Стандарт вещания : NTSC
Цветовое пространство : YUV
Подвыборка цветности : 4:2:0
Битовая глубина : 8 бит
Тип развёртки : MBAFF
Бит/(Пиксели*Кадры) : 0.145
Размер потока : 15,1 Мбайт (96%)
Основные цвета : BT.709-5, BT.1361, IEC 61966-2-4, SMPTE RP177
Характеристики трансфера : BT.709-5, BT.1361
Коэффициенты матрицы : BT.709-5, BT.1361, IEC 61966-2-4 709, SMPTE RP177

Общее
Идентификатор : 0 (0x0)
Полное имя : D:\Opera video\Handel\Handel - Tamerlano (2008, Opus Arte) BD50+25\TAMERLANO DISK 2\BDMV\STREAM\00001.m2ts
Формат : BDAV
Формат/Информация : Blu-ray Video
Размер файла : 16,6 Мбайт
Продолжительность : 6 с. 840 мс.
Общий поток : 20,2 Мбит/сек
Максимальный общий битрейт : 48,0 Мбит/сек

Видео
Идентификатор : 4113 (0x1011)
Идентификатор меню : 1 (0x1)
Формат : AVC
Формат/Информация : Advanced Video Codec
Профиль формата : High@L4.1
Параметр CABAC формата : Да
Параметр ReFrames формата : 4 кадры
Идентификатор кодека : 27
Продолжительность : 6 с. 940 мс.
Вид битрейта : Постоянный
Битрейт : 20,0 Мбит/сек
Ширина : 1920 пикс.
Высота : 1080 пикс.
Соотношение сторон : 16:9
Частота кадров : 29,970 кадр/сек
Стандарт вещания : NTSC
Цветовое пространство : YUV
Подвыборка цветности : 4:2:0
Битовая глубина : 8 бит
Тип развёртки : MBAFF
Бит/(Пиксели*Кадры) : 0.322
Размер потока : 16,0 Мбайт (96%)
Основные цвета : BT.709-5, BT.1361, IEC 61966-2-4, SMPTE RP177
Характеристики трансфера : BT.709-5, BT.1361
Коэффициенты матрицы : BT.709-5, BT.1361, IEC 61966-2-4 709, SMPTE RP177

Общее
Идентификатор : 0 (0x0)
Полное имя : D:\Opera video\Handel\Handel - Tamerlano (2008, Opus Arte) BD50+25\TAMERLANO DISK 2\BDMV\STREAM\00002.m2ts
Формат : BDAV
Формат/Информация : Blu-ray Video
Размер файла : 582 Кбайт
Продолжительность : 2 с. 70 мс.
Общий поток : 2297 Кбит/сек
Максимальный общий битрейт : 48,0 Мбит/сек

Общее
Идентификатор : 0 (0x0)
Полное имя : D:\Opera video\Handel\Handel - Tamerlano (2008, Opus Arte) BD50+25\TAMERLANO DISK 2\BDMV\STREAM\00003.m2ts
Формат : BDAV
Формат/Информация : Blu-ray Video
Размер файла : 224 Мбайт
Продолжительность : 59 с.
Общий поток : 31,4 Мбит/сек
Максимальный общий битрейт : 48,0 Мбит/сек

Видео
Идентификатор : 4113 (0x1011)
Идентификатор меню : 1 (0x1)
Формат : AVC
Формат/Информация : Advanced Video Codec
Профиль формата : High@L4.1
Параметр CABAC формата : Да
Параметр ReFrames формата : 4 кадры
Идентификатор кодека : 27
Продолжительность : 59 с.
Вид битрейта : Постоянный
Битрейт : 30,0 Мбит/сек
Ширина : 1920 пикс.
Высота : 1080 пикс.
Соотношение сторон : 16:9
Частота кадров : 29,970 кадр/сек
Стандарт вещания : NTSC
Цветовое пространство : YUV
Подвыборка цветности : 4:2:0
Битовая глубина : 8 бит
Тип развёртки : MBAFF
Бит/(Пиксели*Кадры) : 0.483
Размер потока : 215 Мбайт (96%)
Основные цвета : BT.709-5, BT.1361, IEC 61966-2-4, SMPTE RP177
Характеристики трансфера : BT.709-5, BT.1361
Коэффициенты матрицы : BT.709-5, BT.1361, IEC 61966-2-4 709, SMPTE RP177

Общее
Идентификатор : 0 (0x0)
Полное имя : D:\Opera video\Handel\Handel - Tamerlano (2008, Opus Arte) BD50+25\TAMERLANO DISK 2\BDMV\STREAM\00004.m2ts
Формат : BDAV
Формат/Информация : Blu-ray Video
Размер файла : 2,72 Мбайт
Продолжительность : 4 с. 860 мс.
Общий поток : 4524 Кбит/сек
Максимальный общий битрейт : 48,0 Мбит/сек

Общее
Идентификатор : 0 (0x0)
Полное имя : D:\Opera video\Handel\Handel - Tamerlano (2008, Opus Arte) BD50+25\TAMERLANO DISK 2\BDMV\STREAM\00005.m2ts
Формат : BDAV
Формат/Информация : Blu-ray Video
Размер файла : 21,0 Гбайт
Продолжительность : 1 ч. 12 м.
Общий поток : 41,3 Мбит/сек
Максимальный общий битрейт : 48,0 Мбит/сек

Видео
Идентификатор : 4113 (0x1011)
Идентификатор меню : 1 (0x1)
Формат : AVC
Формат/Информация : Advanced Video Codec
Профиль формата : High@L4.1
Параметр CABAC формата : Да
Параметр ReFrames формата : 4 кадры
Идентификатор кодека : 27
Продолжительность : 1 ч. 12 м.
Вид битрейта : Переменный
Битрейт : 30,5 Мбит/сек
Максимальный битрейт : 36,0 Мбит/сек
Ширина : 1920 пикс.
Высота : 1080 пикс.
Соотношение сторон : 16:9
Частота кадров : 29,970 кадр/сек
Стандарт вещания : NTSC
Цветовое пространство : YUV
Подвыборка цветности : 4:2:0
Битовая глубина : 8 бит
Тип развёртки : MBAFF
Бит/(Пиксели*Кадры) : 0.490
Размер потока : 15,5 Гбайт (74%)
Основные цвета : BT.709-5, BT.1361, IEC 61966-2-4, SMPTE RP177
Характеристики трансфера : BT.709-5, BT.1361
Коэффициенты матрицы : BT.709-5, BT.1361, IEC 61966-2-4 709, SMPTE RP177

Аудио #1
Идентификатор : 4352 (0x1100)
Идентификатор меню : 1 (0x1)
Формат : PCM
Параметр Endianness формата : Big
Параметр Sign формата : Signed
Режим смешивания : Blu-ray
Идентификатор кодека : 128
Продолжительность : 1 ч. 12 м.
Вид битрейта : Постоянный
Битрейт : 2304 Кбит/сек
Канал(ы) : 2 канала(ов)
Расположение каналов : Front: L R
Частота : 48,0 КГц
Битовая глубина : 24 бит
Размер потока : 1,17 Гбайт (6%)

Аудио #2
Идентификатор : 4353 (0x1101)
Идентификатор меню : 1 (0x1)
Формат : PCM
Параметр Endianness формата : Big
Параметр Sign формата : Signed
Режим смешивания : Blu-ray
Идентификатор кодека : 128
Продолжительность : 1 ч. 12 м.
Вид битрейта : Постоянный
Битрейт : 6912 Кбит/сек
Канал(ы) : 5 канала(ов)
Расположение каналов : Front: L R, Side: L R, LFE
Частота : 48,0 КГц
Битовая глубина : 24 бит
Размер потока : 3,52 Гбайт (17%)

Общее
Полное имя : D:\Opera video\Handel\Handel - Tamerlano (2008, Opus Arte) BD50+25\TAMERLANO DISK 2\CERTIFICATE\BACKUP\id.bdmv
Размер файла : 104 байт

Общее
Полное имя : D:\Opera video\Handel\Handel - Tamerlano (2008, Opus Arte) BD50+25\TAMERLANO DISK 2\CERTIFICATE\id.bdmv
Размер файла : 104 байт


Трекер:  [ 27-Сен-2011 21:06 ]

  

Скачать .torrent

Размер .torrent файла 319 KB


Размер: 62.61 GB
Хэш (hash) релиза: c85d258261d2bc8b7ea3f4cb391dc4a1f2d5f267

Еще никто не оставлял запись к записи скачать торрент Гендель - Тамерлан Handel - Tamerlano . Будь первым!

!Обратная связь