Скачать через торрент Куклы Серии 92-98, 100-102 Фильм бесплатно в хорошем качестве torrent

Скачивайте на UnionPeer.org фильмы через торрент без регистрации. Новинки кино в хорошем качестве через торрент. На UnionPeer.org можно скачать через торрент фильмы 2014 и 2015 годов. Самые новые фильмы.

Скачать торрент Куклы Серии 92-98, 100-102 бесплатно через .torrent фильм мультфильм сериал

Если у вас наблюдаются проблемы со скриншотами, переходом по ссылками, скачиванием торрентов - проблемы в блокировщике рекламы AdBlock. #хорошегоДня!


Статистика раздачи
Размер:  7.49 GB   |    Зарегистрирован:  24 дня   |    .torrent скачан:  23 раза   |   
Раздают:  1  
   
Загрузка...
 
Автор Сообщение

Galfimbul

avatar Galfimbul


Куклы

Годы выпуска: 1996-1997
Страна: Россия
Жанр: политическая сатира
Продолжительность: 1x64 мин., 9x9-12 мин.

Режиссёры: Василий Пичул, Александр Левин

Описание: «Куклы» – сатирическая программа, которая начала выходить на канале НТВ с конца 1994 года. Программа быстро набирала популярность и продержалась в эфире до 2002 года. Острая политическая направленность «Кукол» не раз вызывала гнев чиновников, но главные герои программы ни разу за её историю не попытались включить «административный ресурс».

Доп. информация: Оригинальные записи 1996-1997 годов с телеканала НТВ.
Огромная благодарность xfiles за исходники!

Качество: VHSRip
Формат: MPG
Видео кодек: MPEG2
Аудио кодек: AC3
Видео: MPEG2 Video 720x576 (4:3) 25fps 4884-7676kbps
Аудио: Dolby AC3 48000Hz mono 192kbps
92 серия – В новый год с чистой совестью (31.12.1996)
93 серия – Малыш и Карлсон (04.01.1997)
94 серия – Восточный гороскоп (11.01.1997)
95 серия – Обыкновенные люди (18.01.1997)
96 серия – По поводу инаугурации (25.01.1997)
97 серия – Зимняя сказка (01.02.1997)
98 серия – Зимняя сказка, часть 2. Письмо к съезду (08.02.1997)
100 серия – Жизнь казачья (22.02.1997)
101 серия – Приехали! (01.03.1997)
102 серия – Пиковая дама (08.03.1997)
GeneralComplete name : 092 Куклы - В новый год с чистой совестью (1996) [НТВ].mpgFormat : MPEG-PSFile size : 2.75 GiBDuration : 1 h 4 minOverall bit rate mode : VariableOverall bit rate : 6 146 kb/sWriting library : (dvd5: Oct 27 2015)

VideoID : 224 (0xE0)Format : MPEG VideoFormat version : Version 2Format profile : Main@MainFormat settings, BVOP : YesFormat settings, Matrix : CustomFormat settings, GOP : VariableFormat settings, picture struc : FrameDuration : 1 h 4 minBit rate mode : VariableBit rate : 5 832 kb/sMaximum bit rate : 9 600 kb/sWidth : 720 pixelsHeight : 576 pixelsDisplay aspect ratio : 4:3Frame rate : 25.000 FPSStandard : PALColor space : YUVChroma subsampling : 4:2:0Bit depth : 8 bitsScan type : InterlacedScan order : Top Field FirstCompression mode : LossyBits/(Pixel*Frame) : 0.562Time code of first frame : 00:00:00:00Time code source : Group of pictures headerGOP, Open/Closed : OpenGOP, Open/Closed of first fram : ClosedStream size : 2.61 GiB (95%)Writing library : (dvd5: Oct 27 2015)

AudioID : 189 (0xBD)-128 (0x80)Format : AC-3Format/Info : Audio Coding 3Mode extension : CM (complete main)Format settings, Endianness : BigMuxing mode : DVD-VideoDuration : 1 h 3 minBit rate mode : ConstantBit rate : 192 kb/sChannel(s) : 1 channelChannel positions : Front: CSampling rate : 48.0 kHzFrame rate : 31.250 FPS (1536 spf)Bit depth : 16 bitsCompression mode : LossyStream size : 87.9 MiB (3%)


Трекер:  [ 30-Июл-2017 21:42 ]

  

Скачать .torrent

Размер .torrent файла 39 KB


Размер: 7.49 GB
Хэш (hash) релиза: 13589342e494cea30211ce503dd7961b3da62db8
Подписка на обновления:

Еще никто не оставлял запись к записи скачать торрент Куклы Серии 92-98, 100-102 . Будь первым!

!Обратная связь