- Tchaikovsky - Pique Dame torrent

, , - AdBlock. #!


40.98 GB   |    :  5 11    |    .torrent :  118    |   
1  
   
...
 

L


- / Tchaikovsky - Pique Dame

: 2010

: Opus Arte
-:
: Opera
: 02:54:50
:
: English, Catalan, French, German, Spanish
: Gilberto Deflo
:
Hermann: Misha Didyk
Liza: Emily Magee
Count Tomsky: Lado Ataneli
Prince Yeletsky: Ludovic Tézier
Polina: Elena Zaremba
Countess: Ewa Podleś
Chaplitsky: Mikhaïl Vekua
Chekalinsky: Francisco Vas
Masha: Claudia Schneider

Chorus Intermezzo
Escolania de Montserrat
Symphony Orchestra and chorus of the Gran Teatre del Liceu
: Michael Boder

. :
Recorded at the Gran Teatre del Liceu, Barcelona, 30 June & 1 July 2010.

pirxnew
Disc Title: Tchaikovsky Pique Dame
Disc Size: 44000122084 bytes
Protection: AACS
BD-Java: No
BDInfo: 0.5.6

Notes:

BDINFO HOME:
Cinema Squid
http://www.cinemasquid.com/blu-ray/tools/bdinfo

INCLUDES FORUMS REPORT FOR:
AVS Forum Blu-ray Audio and Video Specifications Thread
http://www.avsforum.com/avs-vb/showthread.php?t=1155731

********************
PLAYLIST: 00000.MPLS
********************

<--- BEGIN FORUMS PASTE --->

:

Total Video
Title Codec Length Movie Size Disc Size Bitrate Bitrate Main Audio Track Secondary Audio Track
----- ------ ------- -------------- -------------- ------- ------- ------------------ ---------------------
00000.MPLS AVC 2:54:50 43566993408 44000122084 33,22 24,99 DTS-HD Master 5.1 4115Kbps (48kHz/24-bit) LPCM 2.0 2304Kbps (48kHz/24-bit)
[code]DISC INFO:

Disc Title: Tchaikovsky Pique Dame
Disc Size: 44000122084 bytes
Protection: AACS
BD-Java: No
BDInfo: 0.5.6

PLAYLIST REPORT:

Name: 00000.MPLS
Length: 2:54:50 (h:m:s)
Size: 43566993408 bytes
Total Bitrate: 33,22 Mbps

VIDEO:

Codec Bitrate Description
----- ------- -----------
MPEG-4 AVC Video 24993 kbps 1080i / 29,970 fps / 16:9 / High Profile 4.1

AUDIO:

Codec Language Bitrate Description
----- -------- ------- -----------
DTS-HD Master Audio Russian 4115 kbps 5.1 / 48 kHz / 4115 kbps / 24-bit (DTS Core: 5.1 / 48 kHz / 1509 kbps / 24-bit)
LPCM Audio Russian 2304 kbps 2.0 / 48 kHz / 2304 kbps / 24-bit

SUBTITLES:

Codec Language Bitrate Description
----- -------- ------- -----------
Presentation Graphics English 13,268 kbps
Presentation Graphics Catalan 12,964 kbps
Presentation Graphics French 14,812 kbps
Presentation Graphics German 13,442 kbps
Presentation Graphics Spanish 13,635 kbps

FILES:

Name Time In Length Size Total Bitrate
---- ------- ------ ---- -------------
00000.M2TS 0:00:00.000 1:05:51.380 16382453760 33168
00001.M2TS 1:05:51.380 0:56:45.368 14153539584 33250
00002.M2TS 2:02:36.749 0:52:13.864 13031000064 33265

CHAPTERS:

Number Time In Length Avg Video Rate Max 1-Sec Rate Max 1-Sec Time Max 5-Sec Rate Max 5-Sec Time Max 10Sec Rate Max 10Sec Time Avg Frame Size Max Frame Size Max Frame Time
------ ------- ------ -------------- -------------- -------------- -------------- -------------- -------------- -------------- -------------- -------------- --------------
1 0:00:00.000 0:02:31.584 25326 kbps 36470 kbps 00:00:20.587 35097 kbps 00:00:01.334 35066 kbps 00:00:01.334 105606 bytes 427073 bytes 00:00:11.011
2 0:02:31.584 0:03:31.544 22069 kbps 29939 kbps 00:04:09.949 28732 kbps 00:05:30.697 27832 kbps 00:05:25.758 92045 bytes 300104 bytes 00:03:50.830
3 0:06:03.129 0:05:12.812 29704 kbps 37587 kbps 00:09:17.623 35172 kbps 00:09:37.143 35010 kbps 00:09:40.146 123890 bytes 386613 bytes 00:09:50.156
4 0:11:15.941 0:03:17.931 21577 kbps 36268 kbps 00:14:28.934 35210 kbps 00:14:25.931 34809 kbps 00:14:21.927 89993 bytes 333669 bytes 00:13:04.517
5 0:14:33.873 0:04:14.454 26077 kbps 36797 kbps 00:18:46.758 33754 kbps 00:18:43.322 32165 kbps 00:17:23.542 108763 bytes 357573 bytes 00:18:47.593
6 0:18:48.327 0:05:17.417 30988 kbps 37095 kbps 00:21:54.212 35198 kbps 00:22:04.122 35036 kbps 00:20:18.350 129244 bytes 379094 bytes 00:19:54.593
7 0:24:05.744 0:02:52.438 26394 kbps 36229 kbps 00:26:18.677 33896 kbps 00:26:14.673 32019 kbps 00:25:57.622 110085 bytes 330483 bytes 00:26:19.477
8 0:26:58.183 0:05:26.592 19012 kbps 28163 kbps 00:27:12.330 25957 kbps 00:27:10.261 23718 kbps 00:27:08.660 79295 bytes 261093 bytes 00:31:04.996
9 0:32:24.776 0:04:09.616 21098 kbps 31705 kbps 00:34:39.043 26978 kbps 00:33:46.758 25883 kbps 00:34:39.143 87997 bytes 322535 bytes 00:35:45.743
10 0:36:34.392 0:02:42.695 19485 kbps 27179 kbps 00:38:45.389 25891 kbps 00:38:43.387 25333 kbps 00:38:41.752 81269 bytes 329440 bytes 00:38:48.092
11 0:39:17.088 0:05:15.481 30084 kbps 36464 kbps 00:42:56.640 35146 kbps 00:42:54.772 34977 kbps 00:42:13.330 125474 bytes 337292 bytes 00:42:17.167
12 0:44:32.569 0:01:31.524 24574 kbps 33783 kbps 00:44:37.041 30098 kbps 00:44:34.838 26876 kbps 00:44:32.569 102493 bytes 340394 bytes 00:45:05.536
13 0:46:04.094 0:07:01.921 25661 kbps 36502 kbps 00:46:19.443 35066 kbps 00:46:14.071 34970 kbps 00:46:11.468 107029 bytes 323578 bytes 00:46:07.097
14 0:53:06.016 0:06:33.659 26636 kbps 34471 kbps 00:57:35.785 32326 kbps 00:57:32.749 30277 kbps 00:58:29.672 111094 bytes 328580 bytes 00:56:33.356
15 0:59:39.676 0:02:59.078 19868 kbps 36012 kbps 00:59:56.426 33973 kbps 00:59:52.355 31781 kbps 00:59:49.385 82866 bytes 293147 bytes 00:59:53.957
16 1:02:38.755 0:03:12.625 22996 kbps 36640 kbps 01:05:41.037 35100 kbps 01:05:41.103 31681 kbps 01:05:38.501 95913 bytes 438513 bytes 01:05:41.637
17 1:05:51.380 0:04:45.018 26128 kbps 36458 kbps 01:09:58.994 35020 kbps 01:09:56.191 34464 kbps 01:10:03.265 108973 bytes 354582 bytes 01:09:40.576
18 1:10:36.398 0:02:26.813 19751 kbps 35269 kbps 01:10:46.609 33391 kbps 01:10:44.607 31305 kbps 01:10:40.169 82376 bytes 342237 bytes 01:10:48.978
19 1:13:03.212 0:05:12.145 17615 kbps 25709 kbps 01:17:50.832 25183 kbps 01:15:48.043 23695 kbps 01:15:44.406 73470 bytes 260404 bytes 01:17:52.667
20 1:18:15.357 0:02:22.876 17634 kbps 36298 kbps 01:20:36.264 25573 kbps 01:19:31.433 23864 kbps 01:19:26.461 73549 bytes 359249 bytes 01:20:36.298
21 1:20:38.233 0:02:07.460 34366 kbps 36611 kbps 01:22:32.981 35175 kbps 01:20:57.452 34953 kbps 01:21:09.497 143335 bytes 376590 bytes 01:21:58.380
22 1:22:45.694 0:02:58.845 32312 kbps 37128 kbps 01:24:39.841 35211 kbps 01:25:09.704 35070 kbps 01:25:04.532 134767 bytes 384868 bytes 01:24:55.990
23 1:25:44.539 0:06:52.845 34207 kbps 37012 kbps 01:28:52.660 35289 kbps 01:27:39.287 35046 kbps 01:27:34.182 142670 bytes 401924 bytes 01:28:23.097
24 1:32:37.385 0:05:07.907 23884 kbps 36558 kbps 01:37:02.249 35163 kbps 01:36:58.245 34953 kbps 01:36:53.240 99616 bytes 392101 bytes 01:37:03.017
25 1:37:45.292 0:05:52.185 20133 kbps 30519 kbps 01:39:22.656 29336 kbps 01:39:20.154 27841 kbps 01:38:15.856 83970 bytes 290416 bytes 01:41:50.704
26 1:43:37.477 0:03:35.548 22181 kbps 36296 kbps 01:44:22.990 32446 kbps 01:44:20.988 30353 kbps 01:46:39.993 92513 bytes 304332 bytes 01:44:22.022
27 1:47:13.026 0:07:17.003 25795 kbps 33322 kbps 01:54:05.338 31773 kbps 01:54:04.270 31302 kbps 01:54:03.536 107588 bytes 334553 bytes 01:53:40.813
28 1:54:30.029 0:08:06.719 24558 kbps 37492 kbps 02:02:32.678 35038 kbps 02:02:28.674 34519 kbps 02:02:23.936 102429 bytes 464876 bytes 02:02:33.179
29 2:02:36.749 0:08:35.147 25824 kbps 36872 kbps 02:06:40.059 35225 kbps 02:06:35.988 34934 kbps 02:06:31.150 107707 bytes 406677 bytes 02:02:41.887
30 2:11:11.897 0:04:20.360 19213 kbps 27695 kbps 02:14:55.187 26564 kbps 02:14:52.784 25866 kbps 02:14:52.784 80135 bytes 230317 bytes 02:12:13.225
31 2:15:32.257 0:06:02.061 18663 kbps 34000 kbps 02:20:55.280 33245 kbps 02:20:50.375 32644 kbps 02:20:47.038 77841 bytes 273415 bytes 02:20:55.346
32 2:21:34.319 0:09:18.691 19644 kbps 35357 kbps 02:23:49.187 31608 kbps 02:23:47.485 30066 kbps 02:23:47.485 81934 bytes 263483 bytes 02:30:29.220
33 2:30:53.010 0:03:25.805 27736 kbps 36925 kbps 02:31:57.341 35062 kbps 02:31:56.540 34779 kbps 02:33:38.709 115683 bytes 346276 bytes 02:32:14.325
34 2:34:18.816 0:03:38.785 29336 kbps 36436 kbps 02:37:31.241 34968 kbps 02:37:01.145 34810 kbps 02:36:56.006 122357 bytes 327071 bytes 02:37:01.545
35 2:37:57.601 0:11:28.054 30872 kbps 36811 kbps 02:42:09.719 35204 kbps 02:39:16.346 35032 kbps 02:38:52.556 128764 bytes 404755 bytes 02:42:19.262
36 2:49:25.655 0:05:24.957 27411 kbps 35666 kbps 02:53:36.472 35033 kbps 02:54:10.540 34761 kbps 02:54:07.170 114338 bytes 379061 bytes 02:54:16.946

STREAM DIAGNOSTICS:

File PID Type Codec Language Seconds Bitrate Bytes Packets
---- --- ---- ----- -------- -------------- -------------- ------------- -----
00000.M2TS 4113 (0x1011) 0x1B AVC 3951,314 24999 12347322543 67174146
00000.M2TS 4352 (0x1100) 0x80 LPCM rus (Russian) 3951,314 2310 1141159988 6322216
00000.M2TS 4353 (0x1101) 0x86 DTS-HD MA rus (Russian) 3951,314 4043 1996922668 11468550
00000.M2TS 4608 (0x1200) 0x90 PGS eng (English) 3951,314 15 7623652 44062
00000.M2TS 4609 (0x1201) 0x90 PGS fra (French) 3951,314 18 8714806 49992
00000.M2TS 4610 (0x1202) 0x90 PGS deu (German) 3951,314 16 7708254 44527
00000.M2TS 4611 (0x1203) 0x90 PGS spa (Spanish) 3951,314 16 7932648 45750
00000.M2TS 4612 (0x1204) 0x90 PGS cat (Catalan) 3951,314 15 7544095 43628
00001.M2TS 4113 (0x1011) 0x1B AVC 3405,302 24990 10637115570 57869929
00001.M2TS 4352 (0x1100) 0x80 LPCM rus (Russian) 3405,302 2310 983472300 5448600
00001.M2TS 4353 (0x1101) 0x86 DTS-HD MA rus (Russian) 3405,302 4153 1767818940 10138558
00001.M2TS 4608 (0x1200) 0x90 PGS eng (English) 3405,302 12 4915919 28350
00001.M2TS 4609 (0x1201) 0x90 PGS fra (French) 3405,302 13 5474492 31385
00001.M2TS 4610 (0x1202) 0x90 PGS deu (German) 3405,302 12 5080300 29242
00001.M2TS 4611 (0x1203) 0x90 PGS spa (Spanish) 3405,302 12 4980267 28699
00001.M2TS 4612 (0x1204) 0x90 PGS cat (Catalan) 3405,302 11 4752407 27471
00002.M2TS 4113 (0x1011) 0x1B AVC 3133,797 24990 9789218249 53257029
00002.M2TS 4352 (0x1100) 0x80 LPCM rus (Russian) 3133,797 2310 905061656 5014192
00002.M2TS 4353 (0x1101) 0x86 DTS-HD MA rus (Russian) 3133,797 4163 1630741388 9351012
00002.M2TS 4608 (0x1200) 0x90 PGS eng (English) 3133,797 12 4859449 28180
00002.M2TS 4609 (0x1201) 0x90 PGS fra (French) 3133,797 13 5234222 30219
00002.M2TS 4610 (0x1202) 0x90 PGS deu (German) 3133,797 12 4838568 28057
00002.M2TS 4611 (0x1203) 0x90 PGS spa (Spanish) 3133,797 13 4966541 28758
00002.M2TS 4612 (0x1204) 0x90 PGS cat (Catalan) 3133,797 12 4704169 27331[/code]
<---- END FORUMS PASTE ---->

QUICK SUMMARY:

Disc Title: Tchaikovsky Pique Dame
Disc Size: 44000122084 bytes
Protection: AACS
BD-Java: No
Playlist: 00000.MPLS
Size: 43566993408 bytes
Length: 2:54:50
Total Bitrate: 33,22 Mbps
Video: MPEG-4 AVC Video / 24993 kbps / 1080i / 29,970 fps / 16:9 / High Profile 4.1
Audio: Russian / DTS-HD Master Audio / 5.1 / 48 kHz / 4115 kbps / 24-bit (DTS Core: 5.1 / 48 kHz / 1509 kbps / 24-bit)
Audio: Russian / LPCM Audio / 2.0 / 48 kHz / 2304 kbps / 24-bit
Subtitle: English / 13,268 kbps
Subtitle: Catalan / 12,964 kbps
Subtitle: French / 14,812 kbps
Subtitle: German / 13,442 kbps
Subtitle: Spanish / 13,635 kbps

********************
PLAYLIST: 00001.MPLS
********************

<--- BEGIN FORUMS PASTE --->
[code]Total Video
Title Codec Length Movie Size Disc Size Bitrate Bitrate Main Audio Track Secondary Audio Track
----- ------ ------- -------------- -------------- ------- ------- ------------------ ---------------------
00001.MPLS AVC 0:01:05 209326080 44000122084 25,74 24,59[/code]
[code]DISC INFO:

Disc Title: Tchaikovsky Pique Dame
Disc Size: 44000122084 bytes
Protection: AACS
BD-Java: No
BDInfo: 0.5.6

PLAYLIST REPORT:

Name: 00001.MPLS
Length: 0:01:05 (h:m:s)
Size: 209326080 bytes
Total Bitrate: 25,74 Mbps

VIDEO:

Codec Bitrate Description
----- ------- -----------
MPEG-4 AVC Video 24589 kbps 1080i / 29,970 fps / 16:9 / High Profile 4.1

FILES:

Name Time In Length Size Total Bitrate
---- ------- ------ ---- -------------
00007.M2TS 0:00:00.000 0:01:04.064 209295360 26136
00010.M2TS 0:01:04.064 0:00:01.000 30720 246

CHAPTERS:

Number Time In Length Avg Video Rate Max 1-Sec Rate Max 1-Sec Time Max 5-Sec Rate Max 5-Sec Time Max 10Sec Rate Max 10Sec Time Avg Frame Size Max Frame Size Max Frame Time
------ ------- ------ -------------- -------------- -------------- -------------- -------------- -------------- -------------- -------------- -------------- --------------
1 0:00:00.000 0:01:04.064 24971 kbps 38419 kbps 00:00:31.464 33960 kbps 00:00:24.090 33169 kbps 00:00:23.823 104096 bytes 526770 bytes 00:00:26.026
2 0:01:04.064 0:00:01.000 111 kbps 0 kbps 00:00:00.000 0 kbps 00:00:00.000 0 kbps 00:00:00.000 478 bytes 2435 bytes 00:01:04.664

STREAM DIAGNOSTICS:

File PID Type Codec Language Seconds Bitrate Bytes Packets
---- --- ---- ----- -------- -------------- -------------- ------------- -----
00007.M2TS 4113 (0x1011) 0x1B AVC 63,931 25023 199966395 1087908
00010.M2TS 4113 (0x1011) 0x1B AVC 0,901 145 16291 112[/code]
<---- END FORUMS PASTE ---->

QUICK SUMMARY:

Disc Title: Tchaikovsky Pique Dame
Disc Size: 44000122084 bytes
Protection: AACS
BD-Java: No
Playlist: 00001.MPLS
Size: 209326080 bytes
Length: 0:01:05
Total Bitrate: 25,74 Mbps
Video: MPEG-4 AVC Video / 24589 kbps / 1080i / 29,970 fps / 16:9 / High Profile 4.1
: Blu-ray
/: BDMV
: MPEG4
: DTS-HD
: MPEG-4 AVC Video / 24589 kbps / 1080i / 29,970 fps / 16:9 / High Profile 4.1
1: DTS-HD Master Audio / 5.1 / 48 kHz / 4115 kbps / 24-bit
2: LPCM Audio / 2.0 / 48 kHz / 2304 kbps / 24-bit

 ·  , , FAQ-
:  [ 27--2011 21:03 ]

  

.torrent

.torrent 208 KB


: 40.98 GB
(hash) : b6223350bed6d04633ef26484d61e3387466c1e5
··
...

- Tchaikovsky - Pique Dame . !

!