- torrent

, , - AdBlock. #!


33.14 GB   |    :  6 1    |    .torrent :  156    |   
1  
   
...
 

L


- (The Royal Ballet - Carlos Acosta, Tamara Rojo) (: )

: Ballet
: 2:18:05
: 2007
:
: (Monica Mason) (Ross MacGibbon)
:
(Carlos Acosta)
(Tamara Rojo)
(Jose Martin)
(Thiago Soares)
(Yohei Sasaki)
(David Pickering)
(Christpher Saunders)
(Elizabeth McGorian)
(Gary Avis)
(Christina Arestis)
(Sandra Conley)
(Alastair Marriott)
Royal Ballet
Royal Ballet Sinfonia, leader: (Robert Gibbs)
: (Boris Gruzin)
: , Decca. (Carlos Acosta) (Kenneth MacMillan). - (Tamara Rojo), , . (Nicholas Georgiadis).
2007 .

: Blu-Ray
: AVC MPEG-4
: DTS-HD MA 5.1, LPCM 2.0
: 1080i / AVC MPEG-4 / 1 920 x 1 080 / 24995 Kbps / 29,970 fps
#1: 5.1 / 48 kHz / 4263 kbps / 24-bit (DTS Core: 5.1 / 48 kHz / 1509 kbps / 24-bit)
#2: 2.0 / 48 kHz / 2304 kbps / 24-bit
 
Disc Title: Romeo & Juliet (2007)Disc Size: 35 580 114 968 bytesProtection: AACSBD-Java: NoBDInfo: 0.5.6

Notes:

BDINFO HOME: Cinema Squid http://www.cinemasquid.com/blu-ray/tools/bdinfo

INCLUDES FORUMS REPORT FOR: AVS Forum Blu-ray Audio and Video Specifications Thread http://www.avsforum.com/avs-vb/showthread.php?t=1155731

********************PLAYLIST: 00003.MPLS********************

<--- BEGIN FORUMS PASTE --->

:

Total Video
Title Codec Length Movie Size Disc Size Bitrate Bitrate Main Audio Track Secondary Audio Track
----- ------ ------- -------------- -------------- ------- ------- ------------------ ---------------------
00003.MPLS AVC 2:18:05 34494830592 35580114968 33,30 25,00 DTS-HD Master 5.1 4263Kbps (48kHz/24-bit) LPCM 2.0 2304Kbps (48kHz/24-bit)
[code]DISC INFO:

Disc Title: Romeo & Juliet (2007)
Disc Size: 35580114968 bytes
Protection: AACS
BD-Java: No
BDInfo: 0.5.6

PLAYLIST REPORT:

Name: 00003.MPLS
Length: 2:18:05 (h:m:s)
Size: 34494830592 bytes
Total Bitrate: 33,30 Mbps

VIDEO:

Codec Bitrate Description
----- ------- -----------
MPEG-4 AVC Video 24995 kbps 1080i / 29,970 fps / 16:9 / High Profile 4.1

AUDIO:

Codec Language Bitrate Description
----- -------- ------- -----------
DTS-HD Master Audio Miscellaneous languages4263 kbps 5.1 / 48 kHz / 4263 kbps / 24-bit (DTS Core: 5.1 / 48 kHz / 1509 kbps / 24-bit)
LPCM Audio Miscellaneous languages2304 kbps 2.0 / 48 kHz / 2304 kbps / 24-bit

FILES:

Name Time In Length Size Total Bitrate
---- ------- ------ ---- -------------
00007.M2TS 0:00:00.000 1:34:22.356 23584063488 33320
00008.M2TS 1:34:22.356 0:43:43.454 10910767104 33271

CHAPTERS:

Number Time In Length Avg Video Rate Max 1-Sec Rate Max 1-Sec Time Max 5-Sec Rate Max 5-Sec Time Max 10Sec Rate Max 10Sec Time Avg Frame Size Max Frame Size Max Frame Time
------ ------- ------ -------------- -------------- -------------- -------------- -------------- -------------- -------------- -------------- -------------- --------------
1 0:00:00.000 0:01:54.147 15909 kbps 24450 kbps 00:00:31.631 22469 kbps 00:00:31.531 21616 kbps 00:00:31.131 66334 bytes 235906 bytes 00:00:18.818
2 0:01:54.147 0:03:00.513 20952 kbps 28445 kbps 00:03:33.479 27337 kbps 00:03:33.279 26831 kbps 00:03:28.074 87387 bytes 389508 bytes 00:04:36.943
3 0:04:54.661 0:01:12.172 22592 kbps 30096 kbps 00:05:35.034 27822 kbps 00:05:32.165 26630 kbps 00:05:29.162 94227 bytes 313116 bytes 00:05:52.318
4 0:06:06.833 0:02:15.435 30200 kbps 34052 kbps 00:08:20.366 32667 kbps 00:07:07.560 32445 kbps 00:07:05.825 125959 bytes 360551 bytes 00:07:34.921
5 0:08:22.268 0:02:05.125 29919 kbps 34211 kbps 00:08:25.605 32698 kbps 00:09:44.016 32103 kbps 00:09:39.045 124786 bytes 337730 bytes 00:10:11.310
6 0:10:27.393 0:01:06.766 29698 kbps 34446 kbps 00:10:37.937 32701 kbps 00:10:38.571 32281 kbps 00:10:34.433 123867 bytes 346221 bytes 00:10:43.476
7 0:11:34.160 0:02:33.286 28231 kbps 34366 kbps 00:12:25.711 32720 kbps 00:12:23.375 32054 kbps 00:11:46.505 117746 bytes 337364 bytes 00:13:41.720
8 0:14:07.446 0:02:57.877 23908 kbps 34721 kbps 00:14:59.398 32072 kbps 00:14:55.995 28388 kbps 00:14:14.753 99717 bytes 345288 bytes 00:16:39.398
9 0:17:05.324 0:01:16.843 20849 kbps 23380 kbps 00:17:49.968 22524 kbps 00:18:13.559 22343 kbps 00:18:07.319 86958 bytes 280952 bytes 00:17:49.001
10 0:18:22.167 0:03:32.111 23075 kbps 31344 kbps 00:18:31.910 30118 kbps 00:18:31.376 28487 kbps 00:18:30.876 96241 bytes 334230 bytes 00:19:53.158
11 0:21:54.279 0:03:21.401 24077 kbps 34310 kbps 00:24:38.443 31872 kbps 00:24:35.640 30654 kbps 00:23:35.981 100421 bytes 359505 bytes 00:23:41.720
12 0:25:15.680 0:02:43.830 20442 kbps 29004 kbps 00:27:40.725 26041 kbps 00:27:37.522 24990 kbps 00:26:35.126 85262 bytes 277748 bytes 00:27:31.082
13 0:27:59.511 0:03:09.822 31119 kbps 34839 kbps 00:31:01.292 32866 kbps 00:29:20.692 32606 kbps 00:30:57.121 129792 bytes 362529 bytes 00:28:31.443
14 0:31:09.334 0:03:25.205 29651 kbps 34858 kbps 00:33:57.168 32622 kbps 00:33:46.958 32434 kbps 00:33:40.651 123670 bytes 339877 bytes 00:34:33.638
15 0:34:34.539 0:02:40.159 31794 kbps 35264 kbps 00:35:26.190 32748 kbps 00:35:36.167 32509 kbps 00:36:57.548 132608 bytes 371733 bytes 00:37:07.158
16 0:37:14.699 0:02:22.408 26664 kbps 34457 kbps 00:39:27.898 32717 kbps 00:39:23.994 32516 kbps 00:39:25.363 111209 bytes 364830 bytes 00:37:27.478
17 0:39:37.108 0:02:34.053 27188 kbps 34445 kbps 00:39:39.543 32723 kbps 00:40:36.834 32521 kbps 00:40:43.441 113396 bytes 357422 bytes 00:40:47.678
18 0:42:11.161 0:03:22.702 19917 kbps 33093 kbps 00:43:52.997 30274 kbps 00:42:55.072 26213 kbps 00:43:52.096 83072 bytes 293668 bytes 00:42:55.105
19 0:45:33.864 0:01:41.935 26399 kbps 33468 kbps 00:47:04.488 32498 kbps 00:47:09.593 30764 kbps 00:46:56.180 110105 bytes 315590 bytes 00:47:09.626
20 0:47:15.799 0:03:40.887 20449 kbps 34182 kbps 00:48:01.445 32649 kbps 00:47:45.128 32518 kbps 00:47:53.470 85289 bytes 309839 bytes 00:47:48.398
21 0:50:56.686 0:09:37.543 16902 kbps 26563 kbps 00:53:46.556 23997 kbps 00:53:46.356 22682 kbps 00:53:45.722 70496 bytes 263536 bytes 00:53:30.707
22 1:00:34.230 0:03:23.169 28439 kbps 34134 kbps 01:03:10.686 32635 kbps 01:01:34.223 32276 kbps 01:01:18.441 118616 bytes 313583 bytes 01:01:57.780
23 1:03:57.400 0:02:03.790 26715 kbps 34026 kbps 01:04:56.893 32593 kbps 01:04:56.893 32357 kbps 01:04:56.225 111422 bytes 317257 bytes 01:05:01.864
24 1:06:01.190 0:04:09.048 28700 kbps 34056 kbps 01:08:11.754 32613 kbps 01:08:17.827 32360 kbps 01:08:16.826 119705 bytes 333355 bytes 01:08:20.062
25 1:10:10.239 0:02:36.823 27758 kbps 33500 kbps 01:11:09.765 32389 kbps 01:12:21.103 32060 kbps 01:12:18.000 115774 bytes 320508 bytes 01:11:14.770
26 1:12:47.062 0:02:47.000 27664 kbps 34174 kbps 01:13:21.029 32548 kbps 01:12:58.507 31802 kbps 01:12:58.307 115381 bytes 340911 bytes 01:15:14.743
27 1:15:34.062 0:04:23.930 18521 kbps 29002 kbps 01:19:41.610 26892 kbps 01:19:39.274 25785 kbps 01:19:38.340 77249 bytes 284821 bytes 01:18:38.980
28 1:19:57.993 0:03:08.454 29682 kbps 34496 kbps 01:22:13.795 32681 kbps 01:23:00.108 32496 kbps 01:20:56.017 123799 bytes 349215 bytes 01:20:21.583
29 1:23:06.448 0:01:48.608 30075 kbps 34946 kbps 01:24:37.639 32718 kbps 01:24:33.868 32457 kbps 01:24:37.639 125436 bytes 360961 bytes 01:23:22.163
30 1:24:55.056 0:04:28.801 29760 kbps 34696 kbps 01:25:45.940 32864 kbps 01:26:15.336 32591 kbps 01:25:36.664 124123 bytes 394265 bytes 01:27:12.460
31 1:29:23.858 0:02:22.242 28990 kbps 34047 kbps 01:30:53.247 32585 kbps 01:29:35.403 31434 kbps 01:30:04.866 120911 bytes 346020 bytes 01:31:30.451
32 1:31:46.100 0:02:36.256 26058 kbps 34500 kbps 01:32:47.862 32788 kbps 01:33:06.547 32399 kbps 01:32:00.781 108685 bytes 390477 bytes 01:34:15.649
33 1:34:22.356 0:02:34.420 24870 kbps 33180 kbps 01:34:23.758 32280 kbps 01:34:23.758 30026 kbps 01:36:21.642 103729 bytes 315032 bytes 01:35:08.669
34 1:36:56.777 0:05:09.275 24964 kbps 33686 kbps 01:37:36.884 31252 kbps 01:40:25.486 30683 kbps 01:40:25.085 104121 bytes 307738 bytes 01:40:27.488
35 1:42:06.053 0:03:58.871 23567 kbps 33841 kbps 01:45:52.079 32156 kbps 01:45:48.041 29749 kbps 01:44:58.525 98292 bytes 312675 bytes 01:44:32.966
36 1:46:04.925 0:02:46.165 18258 kbps 32413 kbps 01:46:12.999 24823 kbps 01:46:11.698 23845 kbps 01:47:42.889 76153 bytes 305100 bytes 01:46:12.032
37 1:48:51.091 0:03:44.624 25586 kbps 33893 kbps 01:50:48.408 32576 kbps 01:52:23.937 31953 kbps 01:52:23.436 106717 bytes 311794 bytes 01:52:33.446
38 1:52:35.715 0:03:20.466 29628 kbps 34254 kbps 01:55:48.207 32579 kbps 01:54:16.516 32475 kbps 01:55:17.243 123573 bytes 342981 bytes 01:55:39.532
39 1:55:56.182 0:03:43.690 26196 kbps 33954 kbps 01:55:57.817 32569 kbps 01:59:28.528 32340 kbps 01:59:25.491 109259 bytes 348208 bytes 01:59:29.929
40 1:59:39.872 0:02:22.609 29494 kbps 34098 kbps 02:00:13.406 32610 kbps 02:00:09.402 32182 kbps 02:00:06.566 123015 bytes 339563 bytes 02:00:13.606
41 2:02:02.481 0:01:56.382 30151 kbps 34546 kbps 02:02:30.342 32758 kbps 02:02:31.243 32547 kbps 02:03:08.080 125754 bytes 338915 bytes 02:02:26.472
42 2:03:58.864 0:07:02.255 21729 kbps 33441 kbps 02:08:57.930 31776 kbps 02:04:20.686 31694 kbps 02:04:20.686 90628 bytes 366666 bytes 02:04:22.888
43 2:11:01.119 0:05:44.444 25384 kbps 34293 kbps 02:15:33.525 32763 kbps 02:15:27.853 32447 kbps 02:13:39.211 105872 bytes 370375 bytes 02:15:34.326
44 2:16:45.564 0:01:20.246 26848 kbps 33610 kbps 02:17:27.005 31772 kbps 02:17:45.790 31655 kbps 02:17:40.619 112025 bytes 331231 bytes 02:17:41.620

STREAM DIAGNOSTICS:

File PID Type Codec Language Seconds Bitrate Bytes Packets
---- --- ---- ----- -------- -------------- -------------- ------------- -----
00007.M2TS 4113 (0x1011) 0x1B AVC 5662,257 24998 17693153817 96257347
00007.M2TS 4352 (0x1100) 0x80 LPCM mis (Miscellaneous languages)5662,257 2310 1635289568 9059776
00007.M2TS 4353 (0x1101) 0x86 DTS-HD MA mis (Miscellaneous languages)5662,257 4275 3025751364 17326821
00008.M2TS 4113 (0x1011) 0x1B AVC 2623,321 24991 8194905989 44583295
00008.M2TS 4352 (0x1100) 0x80 LPCM mis (Miscellaneous languages)2623,321 2311 757653804 4197528
00008.M2TS 4353 (0x1101) 0x86 DTS-HD MA mis (Miscellaneous languages)2623,321 4237 1389244840 7958179[/code]
<pre>
<---- END FORUMS PASTE ---->

QUICK SUMMARY:

Disc Title: Romeo & Juliet (2007)Disc Size: 35 580 114 968 bytesProtection: AACSBD-Java: NoPlaylist: 00003.MPLSSize: 34 494 830 592 bytesLength: 2:18:05Total Bitrate: 33,30 MbpsVideo: MPEG-4 AVC Video / 24995 kbps / 1080i / 29,970 fps / 16:9 / High Profile 4.1Audio: Miscellaneous languages / DTS-HD Master Audio / 5.1 / 48 kHz / 4263 kbps / 24-bit (DTS Core: 5.1 / 48 kHz / 1509 kbps / 24-bit)Audio: Miscellaneous languages / LPCM Audio / 2.0 / 48 kHz / 2304 kbps / 24-bit

********************PLAYLIST: 00000.MPLS********************

<--- BEGIN FORUMS PASTE --->
</pre>
[code]Total Video
Title Codec Length Movie Size Disc Size Bitrate Bitrate Main Audio Track Secondary Audio Track
----- ------ ------- -------------- -------------- ------- ------- ------------------ ---------------------
00000.MPLS AVC 0:00:36 121442304 35580114968 26,40 20,68 DTS-HD Master 5.1 2904Kbps (48kHz/24-bit) LPCM 2.0 2304Kbps (48kHz/24-bit)[/code]
[code]DISC INFO:

Disc Title: Romeo & Juliet (2007)
Disc Size: 35580114968 bytes
Protection: AACS
BD-Java: No
BDInfo: 0.5.6

PLAYLIST REPORT:

Name: 00000.MPLS
Length: 0:00:36 (h:m:s)
Size: 121442304 bytes
Total Bitrate: 26,40 Mbps

VIDEO:

Codec Bitrate Description
----- ------- -----------
MPEG-4 AVC Video 20681 kbps 1080i / 29,970 fps / 16:9 / High Profile 4.1

AUDIO:

Codec Language Bitrate Description
----- -------- ------- -----------
DTS-HD Master Audio Miscellaneous languages2904 kbps 5.1 / 48 kHz / 2904 kbps / 24-bit (DTS Core: 5.1 / 48 kHz / 1509 kbps / 24-bit)
LPCM Audio Miscellaneous languages2304 kbps 2.0 / 48 kHz / 2304 kbps / 24-bit

FILES:

Name Time In Length Size Total Bitrate
---- ------- ------ ---- -------------
00000.M2TS 0:00:00.000 0:00:12.512 23543808 15053
00001.M2TS 0:00:12.512 0:00:23.289 97867776 33617
00002.M2TS 0:00:35.802 0:00:01.000 30720 246

CHAPTERS:

Number Time In Length Avg Video Rate Max 1-Sec Rate Max 1-Sec Time Max 5-Sec Rate Max 5-Sec Time Max 10Sec Rate Max 10Sec Time Avg Frame Size Max Frame Size Max Frame Time
------ ------- ------ -------------- -------------- -------------- -------------- -------------- -------------- -------------- -------------- -------------- --------------
1 0:00:00.000 0:00:35.802 21256 kbps 29763 kbps 00:00:22.188 28204 kbps 00:00:19.586 27568 kbps 00:00:16.349 88574 bytes 347568 bytes 00:00:24.524
2 0:00:35.802 0:00:01.000 111 kbps 0 kbps 00:00:00.000 0 kbps 00:00:00.000 0 kbps 00:00:00.000 478 bytes 2435 bytes 00:00:36.403

STREAM DIAGNOSTICS:

File PID Type Codec Language Seconds Bitrate Bytes Packets
---- --- ---- ----- -------- -------------- -------------- ------------- -----
00000.M2TS 4113 (0x1011) 0x1B AVC 12,379 14507 22447353 122204
00001.M2TS 4113 (0x1011) 0x1B AVC 23,156 25109 72679016 395421
00001.M2TS 4352 (0x1100) 0x80 LPCM mis (Miscellaneous languages)23,156 2324 6726152 37264
00001.M2TS 4353 (0x1101) 0x86 DTS-HD MA mis (Miscellaneous languages)23,156 4615 13359112 76232
00002.M2TS 4113 (0x1011) 0x1B AVC 0,901 145 16291 112[/code]
<pre>
<---- END FORUMS PASTE ---->

QUICK SUMMARY:

Disc Title: Romeo & Juliet (2007)Disc Size: 35 580 114 968 bytesProtection: AACSBD-Java: NoPlaylist: 00000.MPLSSize: 121 442 304 bytesLength: 0:00:36Total Bitrate: 26,40 MbpsVideo: MPEG-4 AVC Video / 20681 kbps / 1080i / 29,970 fps / 16:9 / High Profile 4.1Audio: Miscellaneous languages / DTS-HD Master Audio / 5.1 / 48 kHz / 2904 kbps / 24-bit (DTS Core: 5.1 / 48 kHz / 1509 kbps / 24-bit)Audio: Miscellaneous languages / LPCM Audio / 2.0 / 48 kHz / 2304 kbps / 24-bit
</pre>


 ·  , , FAQ-
:  [ 27--2011 21:02 ]

  

.torrent

.torrent 169 KB


: 33.14 GB
(hash) : d5a59a9709c818a885ba08fc7c08626627946f08
··
...

- . !

!