.. : " " Tchaikovsky: Sleeping Beauty torrent

, , - AdBlock. #!


40.43 GB   |    :  5 11    |    .torrent :  142    |   
1  
   
...
 

L


.. : " " / Tchaikovsky: Sleeping Beauty

: 2006
:
: 02 . 12 . 27 .

: Alina Cojocaru (Princess Aurora), Federico Bonelli (Prince Florimund), Christopher Saunders (King Florestan XXIV), Elizabeth McGorian (His Queen), Alastair Marriott (Cattalabutte), Marianela Nuñez (Lilac Fairy), the Royal Ballet

The Orchestra of the Royal Opera House


-

: Blu-Ray (BD-50 Dual-Layer Disc)
: BDMV
: MPEG-4 AVC Video / 31602 kbps / 1920x1080i / 29,970 fps / 16:9 / High Profile 4.1
#1:English LPCM 5.1 (48 kHz / 6912 kbps / 24-bit)
#2:English LPCM 2.0 (48 kHz / 2304 kbps / 24-bit)
: , , ,

:
Disc Title:
Disc Size: 43410811556 bytes
Protection: AACS
BD-Java: No
BDInfo: 0.5.3

Notes:

BDINFO HOME:
Cinema Squid
http://www.cinemasquid.com/blu-ray/tools/bdinfo

INCLUDES FORUMS REPORT FOR:
AVS Forum Blu-ray Audio and Video Specifications Thread
http://www.avsforum.com/avs-vb/showthread.php?t=1155731

********************
PLAYLIST: 00004.MPLS
********************

<--- BEGIN FORUMS PASTE --->

:

Total Video
Title Codec Length Movie Size Disc Size Bitrate Bitrate Main Audio Track Secondary Audio Track
----- ------ ------- -------------- -------------- ------- ------- ------------------ ---------------------
00004.MPLS AVC 2:12:27 42606317568 43410811556 42,89 31,60 LPCM 5.1 6912Kbps (48kHz/24-bit) LPCM 2.0 2304Kbps (48kHz/24-bit)
[code]DISC INFO:

Disc Title:
Disc Size: 43410811556 bytes
Protection: AACS
BD-Java: No
BDInfo: 0.5.3

PLAYLIST REPORT:

Name: 00004.MPLS
Length: 2:12:27 (h:m:s)
Size: 42606317568 bytes
Total Bitrate: 42,89 Mbps

VIDEO:

Codec Bitrate Description
----- ------- -----------
MPEG-4 AVC Video 31602 kbps 1080i / 29,970 fps / 16:9 / High Profile 4.1

AUDIO:

Codec Language Bitrate Description
----- -------- ------- -----------
LPCM Audio English 6912 kbps 5.1 / 48 kHz / 6912 kbps / 24-bit
LPCM Audio English 2304 kbps 2.0 / 48 kHz / 2304 kbps / 24-bit

SUBTITLES:

Codec Language Bitrate Description
----- -------- ------- -----------
Presentation Graphics French 0,063 kbps
Presentation Graphics German 0,076 kbps
Presentation Graphics Italian 0,074 kbps
Presentation Graphics Spanish 0,077 kbps

FILES:

Name Time In Length Size Total Bitrate
---- ------- ------ ---- -------------
00007.M2TS 0:00:00.000 2:12:27.973 42606317568 42885

CHAPTERS:

Number Time In Length Avg Video Rate Max 1-Sec Rate Max 1-Sec Time Max 5-Sec Rate Max 5-Sec Time Max 10Sec Rate Max 10Sec Time Avg Frame Size Max Frame Size Max Frame Time
------ ------- ------ -------------- -------------- -------------- -------------- -------------- -------------- -------------- -------------- -------------- --------------
1 0:00:00.000 0:02:42.929 29257 kbps 38014 kbps 00:01:01.061 34860 kbps 00:00:22.422 33741 kbps 00:00:19.486 122001 bytes 523112 bytes 00:02:42.929
2 0:02:42.929 0:03:44.257 32138 kbps 47013 kbps 00:03:47.794 39506 kbps 00:03:43.923 38051 kbps 00:03:40.019 134041 bytes 524776 bytes 00:02:52.572
3 0:06:27.186 0:04:13.853 32203 kbps 45451 kbps 00:09:42.381 39170 kbps 00:09:42.014 37886 kbps 00:09:42.114 134313 bytes 521657 bytes 00:09:46.953
4 0:10:41.040 0:00:36.603 27837 kbps 34592 kbps 00:11:06.332 33589 kbps 00:11:03.562 31395 kbps 00:10:58.057 116105 bytes 471097 bytes 00:11:08.034
5 0:11:17.643 0:04:07.213 28636 kbps 42336 kbps 00:13:27.573 36877 kbps 00:11:33.959 36566 kbps 00:11:28.954 119436 bytes 521260 bytes 00:12:01.987
6 0:15:24.857 0:01:25.585 28226 kbps 37198 kbps 00:16:48.107 30531 kbps 00:16:24.249 30253 kbps 00:16:23.882 117724 bytes 517086 bytes 00:16:48.907
7 0:16:50.442 0:00:45.678 28226 kbps 36454 kbps 00:17:28.781 31732 kbps 00:17:25.444 30718 kbps 00:17:20.439 117728 bytes 525120 bytes 00:17:28.947
8 0:17:36.121 0:01:24.350 24489 kbps 32660 kbps 00:18:53.298 29790 kbps 00:18:51.263 28399 kbps 00:18:46.258 102138 bytes 369675 bytes 00:18:22.534
9 0:19:00.472 0:00:39.372 27458 kbps 35135 kbps 00:19:16.221 31894 kbps 00:19:25.931 30364 kbps 00:19:20.959 114524 bytes 484403 bytes 00:19:39.845
10 0:19:39.845 0:01:29.189 30524 kbps 38352 kbps 00:20:57.723 34487 kbps 00:19:40.045 33938 kbps 00:20:36.301 127310 bytes 493602 bytes 00:20:56.321
11 0:21:09.034 0:01:25.985 35553 kbps 42675 kbps 00:22:30.649 36845 kbps 00:21:33.358 36751 kbps 00:21:35.127 148284 bytes 522838 bytes 00:21:31.256
12 0:22:35.020 0:01:58.785 33859 kbps 38653 kbps 00:23:37.582 36299 kbps 00:22:42.627 35874 kbps 00:22:43.662 141218 bytes 497237 bytes 00:22:55.774
13 0:24:33.805 0:08:34.547 31570 kbps 42725 kbps 00:26:40.231 37555 kbps 00:25:55.921 36763 kbps 00:30:24.823 131672 bytes 523084 bytes 00:26:13.939
14 0:33:08.353 0:02:53.806 33563 kbps 42957 kbps 00:33:41.953 37692 kbps 00:33:29.240 37323 kbps 00:33:28.639 139986 bytes 521416 bytes 00:33:36.614
15 0:36:02.160 0:04:02.008 33781 kbps 39098 kbps 00:38:06.183 36219 kbps 00:38:03.180 35669 kbps 00:37:08.159 140895 bytes 500519 bytes 00:38:06.217
16 0:40:04.168 0:01:59.352 33397 kbps 39274 kbps 00:40:49.480 36872 kbps 00:40:58.889 36229 kbps 00:40:40.471 139294 bytes 524520 bytes 00:40:48.078
17 0:42:03.521 0:00:48.648 33545 kbps 39308 kbps 00:42:50.234 35786 kbps 00:42:46.230 34777 kbps 00:42:19.537 139911 bytes 521189 bytes 00:42:50.935
18 0:42:52.169 0:06:21.180 33925 kbps 44163 kbps 00:46:03.894 38141 kbps 00:46:03.794 36217 kbps 00:47:32.416 141497 bytes 524258 bytes 00:43:15.459
19 0:49:13.350 0:01:48.875 33394 kbps 37915 kbps 00:50:36.433 36780 kbps 00:50:32.429 35900 kbps 00:50:13.010 139283 bytes 519147 bytes 00:50:17.047
20 0:51:02.225 0:04:05.211 32882 kbps 44025 kbps 00:51:02.592 37232 kbps 00:52:46.596 36381 kbps 00:52:41.591 137144 bytes 524824 bytes 00:54:15.318
21 0:55:07.437 0:02:40.860 33110 kbps 41743 kbps 00:56:36.192 37523 kbps 00:56:33.089 36516 kbps 00:57:11.728 138098 bytes 522148 bytes 00:57:17.600
22 0:57:48.298 0:05:32.732 28517 kbps 41749 kbps 01:01:52.275 37294 kbps 01:00:07.670 36493 kbps 01:00:03.299 118939 bytes 524862 bytes 01:01:13.302
23 1:03:21.030 0:02:35.889 33221 kbps 44510 kbps 01:04:45.181 37692 kbps 01:04:42.178 37046 kbps 01:03:29.939 138561 bytes 523943 bytes 01:03:53.095
24 1:05:56.919 0:01:37.931 32831 kbps 43298 kbps 01:06:27.383 38038 kbps 01:06:26.515 35572 kbps 01:07:18.267 136934 bytes 520004 bytes 01:07:22.071
25 1:07:34.850 0:00:51.151 32942 kbps 43686 kbps 01:08:02.645 36555 kbps 01:08:02.511 35843 kbps 01:08:02.511 137396 bytes 450205 bytes 01:07:35.851
26 1:08:26.001 0:01:06.666 30247 kbps 41293 kbps 01:08:33.242 34416 kbps 01:08:33.242 33957 kbps 01:08:33.242 126155 bytes 471475 bytes 01:09:12.848
27 1:09:32.668 0:04:41.681 25579 kbps 39837 kbps 01:13:50.793 37409 kbps 01:13:49.858 37027 kbps 01:13:43.485 106686 bytes 523831 bytes 01:13:45.387
28 1:14:14.349 0:05:28.428 33795 kbps 43379 kbps 01:14:37.105 36991 kbps 01:14:33.135 36374 kbps 01:15:10.505 140952 bytes 524702 bytes 01:17:31.113
29 1:19:42.778 0:02:20.807 34027 kbps 36897 kbps 01:20:17.813 35903 kbps 01:20:06.067 35782 kbps 01:20:03.799 141921 bytes 513725 bytes 01:20:17.212
30 1:22:03.585 0:01:37.697 31880 kbps 44788 kbps 01:22:14.929 37445 kbps 01:22:12.560 35886 kbps 01:22:07.555 132968 bytes 476535 bytes 01:22:15.030
31 1:23:41.282 0:00:32.432 24790 kbps 34899 kbps 01:24:05.507 32270 kbps 01:24:03.338 28223 kbps 01:24:01.369 103396 bytes 406278 bytes 01:24:06.307
32 1:24:13.715 0:02:23.710 26659 kbps 35277 kbps 01:25:55.850 33948 kbps 01:25:53.248 32536 kbps 01:25:48.610 111192 bytes 433020 bytes 01:24:45.747
33 1:26:37.425 0:02:58.778 23921 kbps 42570 kbps 01:26:42.030 34713 kbps 01:26:38.893 32977 kbps 01:26:41.429 99771 bytes 430254 bytes 01:26:42.430
34 1:29:36.204 0:02:15.201 27483 kbps 40751 kbps 01:31:06.527 37663 kbps 01:31:06.194 36918 kbps 01:31:04.425 114628 bytes 523695 bytes 01:31:25.947
35 1:31:51.405 0:03:41.821 32418 kbps 45746 kbps 01:32:34.482 41356 kbps 01:32:31.746 37497 kbps 01:32:30.811 135209 bytes 498113 bytes 01:32:30.845
36 1:35:33.227 0:02:15.802 34394 kbps 37031 kbps 01:35:50.811 36019 kbps 01:37:32.980 35742 kbps 01:37:30.778 143452 bytes 473266 bytes 01:37:35.282
37 1:37:49.029 0:01:02.729 32724 kbps 36937 kbps 01:38:50.758 34037 kbps 01:37:53.567 33786 kbps 01:37:55.002 136485 bytes 478597 bytes 01:38:28.269
38 1:38:51.759 0:01:00.393 34947 kbps 41681 kbps 01:38:52.660 37359 kbps 01:38:52.660 36541 kbps 01:38:52.726 145756 bytes 520424 bytes 01:38:52.760
39 1:39:52.152 0:01:08.401 33750 kbps 39787 kbps 01:40:00.194 36438 kbps 01:39:57.391 35818 kbps 01:39:53.454 140767 bytes 512693 bytes 01:39:53.487
40 1:41:00.554 0:02:27.480 33168 kbps 43576 kbps 01:43:12.219 36967 kbps 01:41:51.071 36487 kbps 01:43:04.278 138339 bytes 512959 bytes 01:42:49.796
41 1:43:28.035 0:02:54.340 34106 kbps 40471 kbps 01:43:53.594 36583 kbps 01:45:47.374 36067 kbps 01:43:44.585 142252 bytes 518054 bytes 01:44:12.045
42 1:46:22.376 0:01:10.837 32819 kbps 38985 kbps 01:47:32.212 37240 kbps 01:47:25.539 35498 kbps 01:47:23.203 136884 bytes 521602 bytes 01:47:27.941
43 1:47:33.213 0:01:20.046 32955 kbps 38595 kbps 01:48:13.820 35993 kbps 01:48:09.916 35608 kbps 01:48:05.212 137450 bytes 505838 bytes 01:48:07.447
44 1:48:53.260 0:02:03.456 31180 kbps 41471 kbps 01:50:27.487 37550 kbps 01:50:25.485 36843 kbps 01:50:20.280 130047 bytes 519500 bytes 01:50:29.956
45 1:50:56.716 0:01:37.997 34021 kbps 45400 kbps 01:51:13.700 37168 kbps 01:51:01.388 36374 kbps 01:50:57.484 141897 bytes 504140 bytes 01:51:00.720
46 1:52:34.714 0:05:32.165 33944 kbps 37669 kbps 01:56:18.137 35515 kbps 01:53:18.958 35277 kbps 01:53:20.560 141574 bytes 441792 bytes 01:53:29.169
47 1:58:06.879 0:01:40.300 33353 kbps 38597 kbps 01:59:45.511 36689 kbps 01:59:41.807 34419 kbps 01:58:55.428 139110 bytes 517311 bytes 01:59:45.011
48 1:59:47.180 0:02:36.089 33321 kbps 38524 kbps 02:01:35.888 36916 kbps 02:01:35.888 36329 kbps 02:01:35.888 138976 bytes 523949 bytes 02:01:39.358
49 2:02:23.269 0:02:00.153 32081 kbps 40659 kbps 02:04:19.051 37808 kbps 02:04:17.983 36905 kbps 02:04:01.033 133806 bytes 522220 bytes 02:04:22.188
50 2:04:23.422 0:02:54.574 34374 kbps 37756 kbps 02:04:30.396 36374 kbps 02:04:36.068 36176 kbps 02:04:35.167 143369 bytes 512069 bytes 02:04:26.425
51 2:07:17.997 0:01:26.519 33696 kbps 37217 kbps 02:07:57.302 35629 kbps 02:07:53.298 35481 kbps 02:07:48.293 140542 bytes 417327 bytes 02:08:41.313
52 2:08:44.516 0:02:30.683 30138 kbps 41120 kbps 02:11:06.024 37309 kbps 02:09:47.479 36660 kbps 02:09:44.109 125700 bytes 523546 bytes 02:09:47.846
53 2:11:15.200 0:01:12.772 21605 kbps 38324 kbps 02:11:57.876 36741 kbps 02:11:54.673 33266 kbps 02:11:50.002 90153 bytes 515137 bytes 02:11:58.677

STREAM DIAGNOSTICS:

File PID Type Codec Language Seconds Bitrate Bytes Packets
---- --- ---- ----- -------- -------------- -------------- ------------- -----
00007.M2TS 4113 (0x1011) 0x1B AVC 7947,907 31602 31396577983 170772802
00007.M2TS 4352 (0x1100) 0x80 LPCM eng (English) 7947,907 6918 6873408780 38150280
00007.M2TS 4353 (0x1101) 0x80 LPCM eng (English) 7947,907 2310 2295375180 12716760
00007.M2TS 4608 (0x1200) 0x90 PGS fra (French) 7947,907 0 62615 391
00007.M2TS 4609 (0x1201) 0x90 PGS deu (German) 7947,907 0 75973 468
00007.M2TS 4610 (0x1202) 0x90 PGS spa (Spanish) 7947,907 0 76981 474
00007.M2TS 4611 (0x1203) 0x90 PGS ita (Italian) 7947,907 0 73796 456[/code]
<---- END FORUMS PASTE ---->

QUICK SUMMARY:

Disc Title:
Disc Size: 43410811556 bytes
Protection: AACS
BD-Java: No
Playlist: 00004.MPLS
Size: 42606317568 bytes
Length: 2:12:27
Total Bitrate: 42,89 Mbps
Video: MPEG-4 AVC Video / 31602 kbps / 1080i / 29,970 fps / 16:9 / High Profile 4.1
Audio: English / LPCM Audio / 5.1 / 48 kHz / 6912 kbps / 24-bit
Audio: English / LPCM Audio / 2.0 / 48 kHz / 2304 kbps / 24-bit
Subtitle: French / 0,063 kbps
Subtitle: German / 0,076 kbps
Subtitle: Italian / 0,074 kbps
Subtitle: Spanish / 0,077 kbps

********************
PLAYLIST: 00002.MPLS
********************

<--- BEGIN FORUMS PASTE --->
[code]Total Video
Title Codec Length Movie Size Disc Size Bitrate Bitrate Main Audio Track Secondary Audio Track
----- ------ ------- -------------- -------------- ------- ------- ------------------ ---------------------
00002.MPLS AVC 0:02:49 486180864 43410811556 22,99 19,85 LPCM 2.0 1536Kbps (48kHz/16-bit)[/code]
[code]DISC INFO:

Disc Title:
Disc Size: 43410811556 bytes
Protection: AACS
BD-Java: No
BDInfo: 0.5.3

PLAYLIST REPORT:

Name: 00002.MPLS
Length: 0:02:49 (h:m:s)
Size: 486180864 bytes
Total Bitrate: 22,99 Mbps

VIDEO:

Codec Bitrate Description
----- ------- -----------
MPEG-4 AVC Video 19848 kbps 1080i / 29,970 fps / 16:9 / High Profile 4.1

AUDIO:

Codec Language Bitrate Description
----- -------- ------- -----------
LPCM Audio English 1536 kbps 2.0 / 48 kHz / 1536 kbps / 16-bit

SUBTITLES:

Codec Language Bitrate Description
----- -------- ------- -----------
Presentation Graphics French 80,668 kbps
Presentation Graphics German 89,754 kbps
Presentation Graphics Italian 81,940 kbps
Presentation Graphics Spanish 76,751 kbps

FILES:

Name Time In Length Size Total Bitrate
---- ------- ------ ---- -------------
00005.M2TS 0:00:00.000 0:02:49.202 486180864 22987

CHAPTERS:

Number Time In Length Avg Video Rate Max 1-Sec Rate Max 1-Sec Time Max 5-Sec Rate Max 5-Sec Time Max 10Sec Rate Max 10Sec Time Avg Frame Size Max Frame Size Max Frame Time
------ ------- ------ -------------- -------------- -------------- -------------- -------------- -------------- -------------- -------------- -------------- --------------
1 0:00:00.000 0:02:49.202 19848 kbps 36688 kbps 00:02:09.996 33566 kbps 00:00:49.048 30231 kbps 00:01:50.076 82781 bytes 782230 bytes 00:00:39.038

STREAM DIAGNOSTICS:

File PID Type Codec Language Seconds Bitrate Bytes Packets
---- --- ---- ----- -------- -------------- -------------- ------------- -----
00005.M2TS 4113 (0x1011) 0x1B AVC 169,136 19855 419783934 2284444
00005.M2TS 4352 (0x1100) 0x80 LPCM eng (English) 169,136 1543 32622724 203046
00005.M2TS 4608 (0x1200) 0x90 PGS fra (French) 169,136 81 1706149 9569
00005.M2TS 4609 (0x1201) 0x90 PGS deu (German) 169,136 90 1898317 10620
00005.M2TS 4610 (0x1202) 0x90 PGS spa (Spanish) 169,136 77 1623301 9118
00005.M2TS 4611 (0x1203) 0x90 PGS ita (Italian) 169,136 82 1733058 9720[/code]
<---- END FORUMS PASTE ---->

QUICK SUMMARY:

Disc Title:
Disc Size: 43410811556 bytes
Protection: AACS
BD-Java: No
Playlist: 00002.MPLS
Size: 486180864 bytes
Length: 0:02:49
Total Bitrate: 22,99 Mbps
Video: MPEG-4 AVC Video / 19848 kbps / 1080i / 29,970 fps / 16:9 / High Profile 4.1
Audio: English / LPCM Audio / 2.0 / 48 kHz / 1536 kbps / 16-bit
Subtitle: French / 80,668 kbps
Subtitle: German / 89,754 kbps
Subtitle: Italian / 81,940 kbps
Subtitle: Spanish / 76,751 kbps

********************
PLAYLIST: 00003.MPLS
********************

<--- BEGIN FORUMS PASTE --->
[code]Total Video
Title Codec Length Movie Size Disc Size Bitrate Bitrate Main Audio Track Secondary Audio Track
----- ------ ------- -------------- -------------- ------- ------- ------------------ ---------------------
00003.MPLS AVC 0:00:52 67166208 43410811556 10,32 9,82[/code]
[code]DISC INFO:

Disc Title:
Disc Size: 43410811556 bytes
Protection: AACS
BD-Java: No
BDInfo: 0.5.3

PLAYLIST REPORT:

Name: 00003.MPLS
Length: 0:00:52 (h:m:s)
Size: 67166208 bytes
Total Bitrate: 10,32 Mbps

VIDEO:

Codec Bitrate Description
----- ------- -----------
MPEG-4 AVC Video 9818 kbps 1080i / 29,970 fps / 16:9 / High Profile 4.1

FILES:

Name Time In Length Size Total Bitrate
---- ------- ------ ---- -------------
00006.M2TS 0:00:00.000 0:00:52.052 67166208 10323

CHAPTERS:

Number Time In Length Avg Video Rate Max 1-Sec Rate Max 1-Sec Time Max 5-Sec Rate Max 5-Sec Time Max 10Sec Rate Max 10Sec Time Avg Frame Size Max Frame Size Max Frame Time
------ ------- ------ -------------- -------------- -------------- -------------- -------------- -------------- -------------- -------------- -------------- --------------
1 0:00:00.000 0:00:09.009 11566 kbps 20071 kbps 00:00:01.000 11201 kbps 00:00:03.970 0 kbps 00:00:00.000 48063 bytes 747990 bytes 00:00:07.006
2 0:00:09.009 0:00:07.006 9424 kbps 19515 kbps 00:00:15.014 10977 kbps 00:00:11.010 0 kbps 00:00:00.000 39304 bytes 759864 bytes 00:00:16.015
3 0:00:16.015 0:00:07.007 10739 kbps 19465 kbps 00:00:20.987 12262 kbps 00:00:17.984 0 kbps 00:00:00.000 44790 bytes 759863 bytes 00:00:17.017
4 0:00:23.023 0:00:07.006 8717 kbps 19584 kbps 00:00:29.028 10380 kbps 00:00:25.024 0 kbps 00:00:00.000 36359 bytes 760319 bytes 00:00:30.029
5 0:00:30.029 0:00:07.007 10267 kbps 19961 kbps 00:00:35.001 11922 kbps 00:00:31.998 0 kbps 00:00:00.000 42820 bytes 760321 bytes 00:00:32.032
6 0:00:37.037 0:00:07.006 9243 kbps 19077 kbps 00:00:42.008 10697 kbps 00:00:39.005 0 kbps 00:00:00.000 38550 bytes 611201 bytes 00:00:40.039
7 0:00:44.043 0:00:08.008 8465 kbps 21626 kbps 00:00:49.015 11819 kbps 00:00:46.012 0 kbps 00:00:00.000 35452 bytes 721321 bytes 00:00:48.048

STREAM DIAGNOSTICS:

File PID Type Codec Language Seconds Bitrate Bytes Packets
---- --- ---- ----- -------- -------------- -------------- ------------- -----
00006.M2TS 4113 (0x1011) 0x1B AVC 51,952 9837 63880869 348066[/code]
<---- END FORUMS PASTE ---->

QUICK SUMMARY:

Disc Title:
Disc Size: 43410811556 bytes
Protection: AACS
BD-Java: No
Playlist: 00003.MPLS
Size: 67166208 bytes
Length: 0:00:52
Total Bitrate: 10,32 Mbps
Video: MPEG-4 AVC Video / 9818 kbps / 1080i / 29,970 fps / 16:9 / High Profile 4.1

********************
PLAYLIST: 00000.MPLS
********************

<--- BEGIN FORUMS PASTE --->
[code]Total Video
Title Codec Length Movie Size Disc Size Bitrate Bitrate Main Audio Track Secondary Audio Track
----- ------ ------- -------------- -------------- ------- ------- ------------------ ---------------------
00000.MPLS AVC 0:00:20 33853440 43410811556 12,92 12,31[/code]
[code]DISC INFO:

Disc Title:
Disc Size: 43410811556 bytes
Protection: AACS
BD-Java: No
BDInfo: 0.5.3

PLAYLIST REPORT:

Name: 00000.MPLS
Length: 0:00:20 (h:m:s)
Size: 33853440 bytes
Total Bitrate: 12,92 Mbps

VIDEO:

Codec Bitrate Description
----- ------- -----------
MPEG-4 AVC Video 12310 kbps 1080i / 29,970 fps / 16:9 / High Profile 4.1

FILES:

Name Time In Length Size Total Bitrate
---- ------- ------ ---- -------------
00000.M2TS 0:00:00.000 0:00:14.014 16410624 9368
00001.M2TS 0:00:14.014 0:00:06.940 17442816 20106

CHAPTERS:

Number Time In Length Avg Video Rate Max 1-Sec Rate Max 1-Sec Time Max 5-Sec Rate Max 5-Sec Time Max 10Sec Rate Max 10Sec Time Avg Frame Size Max Frame Size Max Frame Time
------ ------- ------ -------------- -------------- -------------- -------------- -------------- -------------- -------------- -------------- -------------- --------------
1 0:00:00.000 0:00:14.014 8907 kbps 10475 kbps 00:00:07.807 10095 kbps 00:00:03.803 10014 kbps 00:00:02.435 37063 bytes 101117 bytes 00:00:08.008
2 0:00:14.014 0:00:06.940 19181 kbps 20000 kbps 00:00:14.247 20000 kbps 00:00:14.247 0 kbps 00:00:00.000 80387 bytes 83416 bytes 00:00:14.280

STREAM DIAGNOSTICS:

File PID Type Codec Language Seconds Bitrate Bytes Packets
---- --- ---- ----- -------- -------------- -------------- ------------- -----
00000.M2TS 4113 (0x1011) 0x1B AVC 13,914 8970 15600995 84981
00001.M2TS 4113 (0x1011) 0x1B AVC 6,874 19370 16642506 90584[/code]
<---- END FORUMS PASTE ---->

QUICK SUMMARY:

Disc Title:
Disc Size: 43410811556 bytes
Protection: AACS
BD-Java: No
Playlist: 00000.MPLS
Size: 33853440 bytes
Length: 0:00:20
Total Bitrate: 12,92 Mbps
Video: MPEG-4 AVC Video / 12310 kbps / 1080i / 29,970 fps / 16:9 / High Profile 4.1


 ·  , , FAQ-
:  [ 27--2011 21:00 ]

  

.torrent

.torrent 206 KB


: 40.43 GB
(hash) : 5422093a20c2055258ac1ef796230ad6060ac245
··
...

.. : " " Tchaikovsky: Sleeping Beauty . !

!