: Wayne McGregor: Three Ballets torrent

, , - AdBlock. #!


29.38 GB   |    :  5 11    |    .torrent :  104    |   
1  
   
...
 

L


: / Wayne McGregor: Three Ballets (Chroma/Infra/Limen)

: 2011

: Classical, Balet, Modern Classical

: 01:38:00

: | Opus Arte

/: Barry Wordsworth

: Federico Bonelli, Ricardo Cervera, Tamara Rojo, Mara GaleazzI, Sarah Lamb, Steven Mcrae, Laura Morera, Ludovic Ondiviela, Eric Underwood, Jonathan Watkins, Edward Watson, Orchestra of the Royal Opera House

:
1. (Chroma). : (Joby Talbot), III (Jack White III) .
2. (Infra). : (Max Richter). "Benois de la Danse 2009" "" "" ( ).
3. (Limen). : (Kaija Saariaho).

: Blu-ray (Disc Title: McGregor - Three Ballets (Chroma/Infra/Limen) 1080i Blu-ray AVC DTS-HD MA 5.1)
/: BDMV
: MPEG-4 AVC Video
: DTS-HD MA, DTS

: MPEG-4 AVC Video / 34 788 kbps / 1080i / 29,970 fps / 16:9 / High Profile 4.1

1: DTS-HD Master Audio, 5.1 / 48 kHz / 4095 kbps / 24-bit (DTS Core: 5.1 / 48 kHz / 1509 kbps
2: LPCM / 2 304 kbps / 2.0 / 48 kHz / 2304 kbps / 24-bit
Disc Title: McGregor - Three Ballets (Chroma/Infra/Limen) 1080i Blu-ray AVC DTS-HD MA 5.1
Disc Size: 31546126816 bytes
Protection: AACS
BD-Java: No
BDInfo: 0.5.6

Notes:

BDINFO HOME:
Cinema Squid
http://www.cinemasquid.com/blu-ray/tools/bdinfo

INCLUDES FORUMS REPORT FOR:
AVS Forum Blu-ray Audio and Video Specifications Thread
http://www.avsforum.com/avs-vb/showthread.php?t=1155731

********************
PLAYLIST: 00005.MPLS
********************

<--- BEGIN FORUMS PASTE --->

:

Total Video
Title Codec Length Movie Size Disc Size Bitrate Bitrate Main Audio Track Secondary Audio Track
----- ------ ------- -------------- -------------- ------- ------- ------------------ ---------------------
00005.MPLS AVC 0:29:34 9622001664 31546126816 43,37 34,79 DTS-HD Master 5.1 4095Kbps (48kHz/24-bit) LPCM 2.0 2304Kbps (48kHz/24-bit)
[code]DISC INFO:

Disc Title: McGregor - Three Ballets (Chroma/Infra/Limen) 1080i Blu-ray AVC DTS-HD MA 5.1
Disc Size: 31546126816 bytes
Protection: AACS
BD-Java: No
BDInfo: 0.5.6

PLAYLIST REPORT:

Name: 00005.MPLS
Length: 0:29:34 (h:m:s)
Size: 9622001664 bytes
Total Bitrate: 43,37 Mbps

VIDEO:

Codec Bitrate Description
----- ------- -----------
MPEG-4 AVC Video 34788 kbps 1080i / 29,970 fps / 16:9 / High Profile 4.1

AUDIO:

Codec Language Bitrate Description
----- -------- ------- -----------
DTS-HD Master Audio Undetermined 4095 kbps 5.1 / 48 kHz / 4095 kbps / 24-bit (DTS Core: 5.1 / 48 kHz / 1509 kbps / 24-bit)
LPCM Audio Undetermined 2304 kbps 2.0 / 48 kHz / 2304 kbps / 24-bit

FILES:

Name Time In Length Size Total Bitrate
---- ------- ------ ---- -------------
00008.M2TS 0:00:00.000 0:29:34.806 9622001664 43371

CHAPTERS:

Number Time In Length Avg Video Rate Max 1-Sec Rate Max 1-Sec Time Max 5-Sec Rate Max 5-Sec Time Max 10Sec Rate Max 10Sec Time Avg Frame Size Max Frame Size Max Frame Time
------ ------- ------ -------------- -------------- -------------- -------------- -------------- -------------- -------------- -------------- -------------- --------------
1 0:00:00.000 0:03:56.469 34945 kbps 56294 kbps 00:00:06.139 38900 kbps 00:00:06.206 38042 kbps 00:00:06.139 145728 bytes 515005 bytes 00:00:06.306
2 0:03:56.469 0:03:10.256 35697 kbps 42246 kbps 00:06:17.643 37587 kbps 00:06:14.107 36866 kbps 00:06:13.005 148888 bytes 334319 bytes 00:04:07.981
3 0:07:06.726 0:03:04.584 35785 kbps 44969 kbps 00:07:57.510 38593 kbps 00:07:55.374 37295 kbps 00:07:50.369 149253 bytes 353616 bytes 00:07:36.155
4 0:10:11.310 0:03:09.722 36074 kbps 50255 kbps 00:11:32.892 39077 kbps 00:11:30.456 37685 kbps 00:13:01.680 150460 bytes 434770 bytes 00:11:33.292
5 0:13:21.033 0:01:31.357 35299 kbps 47783 kbps 00:13:51.997 37945 kbps 00:13:58.704 37096 kbps 00:13:51.964 147226 bytes 380745 bytes 00:13:52.031
6 0:14:52.391 0:05:55.521 35762 kbps 43732 kbps 00:20:24.122 40199 kbps 00:19:49.922 38617 kbps 00:19:46.985 149155 bytes 417978 bytes 00:15:01.700
7 0:20:47.913 0:04:25.732 35696 kbps 47368 kbps 00:20:49.181 39751 kbps 00:24:07.145 38669 kbps 00:24:01.406 148882 bytes 429719 bytes 00:21:10.102
8 0:25:13.645 0:03:18.565 35572 kbps 44920 kbps 00:28:30.241 37222 kbps 00:28:26.438 36308 kbps 00:25:52.784 148363 bytes 325515 bytes 00:28:31.242
9 0:28:32.210 0:01:02.595 11982 kbps 24426 kbps 00:28:50.795 22035 kbps 00:28:49.394 19831 kbps 00:28:48.193 50002 bytes 170060 bytes 00:28:51.196

STREAM DIAGNOSTICS:

File PID Type Codec Language Seconds Bitrate Bytes Packets
---- --- ---- ----- -------- -------------- -------------- ------------- -----
00008.M2TS 4113 (0x1011) 0x1B AVC 1774,740 34789 7717763662 42002108
00008.M2TS 4352 (0x1100) 0x86 DTS-HD MA und (Undetermined) 1774,740 4095 908423300 5213297
00008.M2TS 4353 (0x1101) 0x80 LPCM und (Undetermined) 1774,740 2310 512565128 2839696[/code]
<---- END FORUMS PASTE ---->

QUICK SUMMARY:

Disc Title: McGregor - Three Ballets (Chroma/Infra/Limen) 1080i Blu-ray AVC DTS-HD MA 5.1
Disc Size: 31546126816 bytes
Protection: AACS
BD-Java: No
Playlist: 00005.MPLS
Size: 9622001664 bytes
Length: 0:29:34
Total Bitrate: 43,37 Mbps
Video: MPEG-4 AVC Video / 34788 kbps / 1080i / 29,970 fps / 16:9 / High Profile 4.1
Audio: Undetermined / DTS-HD Master Audio / 5.1 / 48 kHz / 4095 kbps / 24-bit (DTS Core: 5.1 / 48 kHz / 1509 kbps / 24-bit)
Audio: Undetermined / LPCM Audio / 2.0 / 48 kHz / 2304 kbps / 24-bit

********************
PLAYLIST: 00007.MPLS
********************

<--- BEGIN FORUMS PASTE --->
[code]Total Video
Title Codec Length Movie Size Disc Size Bitrate Bitrate Main Audio Track Secondary Audio Track
----- ------ ------- -------------- -------------- ------- ------- ------------------ ---------------------
00007.MPLS AVC 0:28:50 9361072128 31546126816 43,27 34,59 DTS-HD Master 5.1 4193Kbps (48kHz/24-bit) LPCM 2.0 2304Kbps (48kHz/24-bit)[/code]
[code]DISC INFO:

Disc Title: McGregor - Three Ballets (Chroma/Infra/Limen) 1080i Blu-ray AVC DTS-HD MA 5.1
Disc Size: 31546126816 bytes
Protection: AACS
BD-Java: No
BDInfo: 0.5.6

PLAYLIST REPORT:

Name: 00007.MPLS
Length: 0:28:50 (h:m:s)
Size: 9361072128 bytes
Total Bitrate: 43,27 Mbps

VIDEO:

Codec Bitrate Description
----- ------- -----------
MPEG-4 AVC Video 34591 kbps 1080i / 29,970 fps / 16:9 / High Profile 4.1

AUDIO:

Codec Language Bitrate Description
----- -------- ------- -----------
DTS-HD Master Audio Undetermined 4193 kbps 5.1 / 48 kHz / 4193 kbps / 24-bit (DTS Core: 5.1 / 48 kHz / 1509 kbps / 24-bit)
LPCM Audio Undetermined 2304 kbps 2.0 / 48 kHz / 2304 kbps / 24-bit

FILES:

Name Time In Length Size Total Bitrate
---- ------- ------ ---- -------------
00010.M2TS 0:00:00.000 0:28:50.762 9361072128 43269

CHAPTERS:

Number Time In Length Avg Video Rate Max 1-Sec Rate Max 1-Sec Time Max 5-Sec Rate Max 5-Sec Time Max 10Sec Rate Max 10Sec Time Avg Frame Size Max Frame Size Max Frame Time
------ ------- ------ -------------- -------------- -------------- -------------- -------------- -------------- -------------- -------------- -------------- --------------
1 0:00:00.000 0:05:33.166 33361 kbps 59262 kbps 00:00:07.340 38064 kbps 00:00:07.340 36603 kbps 00:00:07.340 139131 bytes 558074 bytes 00:00:07.574
2 0:05:33.166 0:03:25.872 36225 kbps 49190 kbps 00:05:34.267 39210 kbps 00:06:23.316 37550 kbps 00:06:23.249 151090 bytes 444801 bytes 00:08:28.274
3 0:08:59.038 0:07:39.759 35864 kbps 41896 kbps 00:10:16.015 38261 kbps 00:14:45.718 37355 kbps 00:14:20.826 149582 bytes 362829 bytes 00:13:46.992
4 0:16:38.797 0:03:53.633 35479 kbps 55734 kbps 00:16:40.232 38911 kbps 00:16:40.232 37897 kbps 00:16:40.232 147976 bytes 307395 bytes 00:16:40.666
5 0:20:32.431 0:07:15.935 35733 kbps 46959 kbps 00:23:19.264 38114 kbps 00:23:19.264 37044 kbps 00:27:32.283 149038 bytes 414406 bytes 00:20:39.671
6 0:27:48.366 0:01:02.395 15080 kbps 27644 kbps 00:28:06.718 24903 kbps 00:28:05.283 23269 kbps 00:28:03.948 62931 bytes 188218 bytes 00:28:07.585

STREAM DIAGNOSTICS:

File PID Type Codec Language Seconds Bitrate Bytes Packets
---- --- ---- ----- -------- -------------- -------------- ------------- -----
00010.M2TS 4113 (0x1011) 0x1B AVC 1730,662 34593 7483594461 40727990
00010.M2TS 4352 (0x1100) 0x86 DTS-HD MA und (Undetermined) 1730,662 4193 907184356 5200359
00010.M2TS 4353 (0x1101) 0x80 LPCM und (Undetermined) 1730,662 2311 499844932 2769224[/code]
<---- END FORUMS PASTE ---->

QUICK SUMMARY:

Disc Title: McGregor - Three Ballets (Chroma/Infra/Limen) 1080i Blu-ray AVC DTS-HD MA 5.1
Disc Size: 31546126816 bytes
Protection: AACS
BD-Java: No
Playlist: 00007.MPLS
Size: 9361072128 bytes
Length: 0:28:50
Total Bitrate: 43,27 Mbps
Video: MPEG-4 AVC Video / 34591 kbps / 1080i / 29,970 fps / 16:9 / High Profile 4.1
Audio: Undetermined / DTS-HD Master Audio / 5.1 / 48 kHz / 4193 kbps / 24-bit (DTS Core: 5.1 / 48 kHz / 1509 kbps / 24-bit)
Audio: Undetermined / LPCM Audio / 2.0 / 48 kHz / 2304 kbps / 24-bit

********************
PLAYLIST: 00003.MPLS
********************

<--- BEGIN FORUMS PASTE --->
[code]Total Video
Title Codec Length Movie Size Disc Size Bitrate Bitrate Main Audio Track Secondary Audio Track
----- ------ ------- -------------- -------------- ------- ------- ------------------ ---------------------
00003.MPLS AVC 0:25:01 8112070656 31546126816 43,22 34,56 DTS-HD Master 5.1 4179Kbps (48kHz/24-bit) LPCM 2.0 2304Kbps (48kHz/24-bit)[/code]
[code]DISC INFO:

Disc Title: McGregor - Three Ballets (Chroma/Infra/Limen) 1080i Blu-ray AVC DTS-HD MA 5.1
Disc Size: 31546126816 bytes
Protection: AACS
BD-Java: No
BDInfo: 0.5.6

PLAYLIST REPORT:

Name: 00003.MPLS
Length: 0:25:01 (h:m:s)
Size: 8112070656 bytes
Total Bitrate: 43,22 Mbps

VIDEO:

Codec Bitrate Description
----- ------- -----------
MPEG-4 AVC Video 34559 kbps 1080i / 29,970 fps / 16:9 / High Profile 4.1

AUDIO:

Codec Language Bitrate Description
----- -------- ------- -----------
DTS-HD Master Audio Undetermined 4179 kbps 5.1 / 48 kHz / 4179 kbps / 24-bit (DTS Core: 5.1 / 48 kHz / 1509 kbps / 24-bit)
LPCM Audio Undetermined 2304 kbps 2.0 / 48 kHz / 2304 kbps / 24-bit

FILES:

Name Time In Length Size Total Bitrate
---- ------- ------ ---- -------------
00006.M2TS 0:00:00.000 0:25:01.533 8112070656 43220

CHAPTERS:

Number Time In Length Avg Video Rate Max 1-Sec Rate Max 1-Sec Time Max 5-Sec Rate Max 5-Sec Time Max 10Sec Rate Max 10Sec Time Avg Frame Size Max Frame Size Max Frame Time
------ ------- ------ -------------- -------------- -------------- -------------- -------------- -------------- -------------- -------------- -------------- --------------
1 0:00:00.000 0:02:50.537 34601 kbps 58798 kbps 00:00:03.169 38517 kbps 00:00:03.203 37524 kbps 00:00:03.203 144286 bytes 459335 bytes 00:00:03.503
2 0:02:50.537 0:03:30.510 36767 kbps 48320 kbps 00:02:53.039 38814 kbps 00:04:30.737 38161 kbps 00:05:03.703 153347 bytes 500683 bytes 00:06:20.880
3 0:06:21.047 0:03:42.655 35993 kbps 50984 kbps 00:06:22.615 38116 kbps 00:08:40.987 37436 kbps 00:08:40.987 150122 bytes 291709 bytes 00:06:22.782
4 0:10:03.703 0:02:48.268 33197 kbps 44439 kbps 00:11:52.411 37261 kbps 00:12:05.224 36434 kbps 00:12:05.057 138459 bytes 333671 bytes 00:12:43.295
5 0:12:51.971 0:02:59.312 37183 kbps 51163 kbps 00:12:53.172 38869 kbps 00:12:53.172 38566 kbps 00:14:53.025 155084 bytes 306330 bytes 00:13:20.833
6 0:15:51.283 0:03:24.737 35064 kbps 39586 kbps 00:18:07.019 37356 kbps 00:16:04.897 36970 kbps 00:18:57.202 146244 bytes 282882 bytes 00:16:15.207
7 0:19:16.021 0:04:43.416 34851 kbps 46020 kbps 00:23:46.258 37882 kbps 00:20:04.503 37787 kbps 00:20:04.503 145356 bytes 398577 bytes 00:23:03.081
8 0:23:59.438 0:01:02.095 14927 kbps 26997 kbps 00:24:18.557 25521 kbps 00:24:17.155 23243 kbps 00:24:15.654 62290 bytes 187422 bytes 00:24:19.458

STREAM DIAGNOSTICS:

File PID Type Codec Language Seconds Bitrate Bytes Packets
---- --- ---- ----- -------- -------------- -------------- ------------- -----
00006.M2TS 4113 (0x1011) 0x1B AVC 1501,433 34561 6486359813 35300676
00006.M2TS 4352 (0x1100) 0x86 DTS-HD MA und (Undetermined) 1501,433 4179 784282080 4496888
00006.M2TS 4353 (0x1101) 0x80 LPCM und (Undetermined) 1501,433 2311 433643308 2402456[/code]
<---- END FORUMS PASTE ---->

QUICK SUMMARY:

Disc Title: McGregor - Three Ballets (Chroma/Infra/Limen) 1080i Blu-ray AVC DTS-HD MA 5.1
Disc Size: 31546126816 bytes
Protection: AACS
BD-Java: No
Playlist: 00003.MPLS
Size: 8112070656 bytes
Length: 0:25:01
Total Bitrate: 43,22 Mbps
Video: MPEG-4 AVC Video / 34559 kbps / 1080i / 29,970 fps / 16:9 / High Profile 4.1
Audio: Undetermined / DTS-HD Master Audio / 5.1 / 48 kHz / 4179 kbps / 24-bit (DTS Core: 5.1 / 48 kHz / 1509 kbps / 24-bit)
Audio: Undetermined / LPCM Audio / 2.0 / 48 kHz / 2304 kbps / 24-bit

********************
PLAYLIST: 00004.MPLS
********************

<--- BEGIN FORUMS PASTE --->
[code]Total Video
Title Codec Length Movie Size Disc Size Bitrate Bitrate Main Audio Track Secondary Audio Track
----- ------ ------- -------------- -------------- ------- ------- ------------------ ---------------------
00004.MPLS AVC 0:05:16 1573165056 31546126816 39,78 36,00 LPCM 2.0 1536Kbps (48kHz/16-bit)[/code]
[code]DISC INFO:

Disc Title: McGregor - Three Ballets (Chroma/Infra/Limen) 1080i Blu-ray AVC DTS-HD MA 5.1
Disc Size: 31546126816 bytes
Protection: AACS
BD-Java: No
BDInfo: 0.5.6

PLAYLIST REPORT:

Name: 00004.MPLS
Length: 0:05:16 (h:m:s)
Size: 1573165056 bytes
Total Bitrate: 39,78 Mbps

VIDEO:

Codec Bitrate Description
----- ------- -----------
MPEG-4 AVC Video 36001 kbps 1080i / 29,970 fps / 16:9 / High Profile 4.1

AUDIO:

Codec Language Bitrate Description
----- -------- ------- -----------
LPCM Audio English 1536 kbps 2.0 / 48 kHz / 1536 kbps / 16-bit

SUBTITLES:

Codec Language Bitrate Description
----- -------- ------- -----------
Presentation Graphics French 79,730 kbps
Presentation Graphics German 89,167 kbps
Presentation Graphics Spanish 79,690 kbps

FILES:

Name Time In Length Size Total Bitrate
---- ------- ------ ---- -------------
00007.M2TS 0:00:00.000 0:05:16.349 1573165056 39783

CHAPTERS:

Number Time In Length Avg Video Rate Max 1-Sec Rate Max 1-Sec Time Max 5-Sec Rate Max 5-Sec Time Max 10Sec Rate Max 10Sec Time Avg Frame Size Max Frame Size Max Frame Time
------ ------- ------ -------------- -------------- -------------- -------------- -------------- -------------- -------------- -------------- -------------- --------------
1 0:00:00.000 0:05:16.349 36001 kbps 58269 kbps 00:00:01.067 39691 kbps 00:01:31.925 37877 kbps 00:01:26.986 150155 bytes 463666 bytes 00:00:01.735

STREAM DIAGNOSTICS:

File PID Type Codec Language Seconds Bitrate Bytes Packets
---- --- ---- ----- -------- -------------- -------------- ------------- -----
00007.M2TS 4113 (0x1011) 0x1B AVC 316,283 36009 1423618663 7748178
00007.M2TS 4352 (0x1100) 0x80 LPCM eng (English) 316,283 1543 60992280 379620
00007.M2TS 4608 (0x1200) 0x90 PGS fra (French) 316,283 80 3152798 17710
00007.M2TS 4609 (0x1201) 0x90 PGS deu (German) 316,283 89 3525974 19742
00007.M2TS 4610 (0x1202) 0x90 PGS spa (Spanish) 316,283 80 3151245 17703[/code]
<---- END FORUMS PASTE ---->

QUICK SUMMARY:

Disc Title: McGregor - Three Ballets (Chroma/Infra/Limen) 1080i Blu-ray AVC DTS-HD MA 5.1
Disc Size: 31546126816 bytes
Protection: AACS
BD-Java: No
Playlist: 00004.MPLS
Size: 1573165056 bytes
Length: 0:05:16
Total Bitrate: 39,78 Mbps
Video: MPEG-4 AVC Video / 36001 kbps / 1080i / 29,970 fps / 16:9 / High Profile 4.1
Audio: English / LPCM Audio / 2.0 / 48 kHz / 1536 kbps / 16-bit
Subtitle: French / 79,730 kbps
Subtitle: German / 89,167 kbps
Subtitle: Spanish / 79,690 kbps

********************
PLAYLIST: 00006.MPLS
********************

<--- BEGIN FORUMS PASTE --->
[code]Total Video
Title Codec Length Movie Size Disc Size Bitrate Bitrate Main Audio Track Secondary Audio Track
----- ------ ------- -------------- -------------- ------- ------- ------------------ ---------------------
00006.MPLS AVC 0:04:50 1443237888 31546126816 39,77 36,00 LPCM 2.0 1536Kbps (48kHz/16-bit)[/code]
[code]DISC INFO:

Disc Title: McGregor - Three Ballets (Chroma/Infra/Limen) 1080i Blu-ray AVC DTS-HD MA 5.1
Disc Size: 31546126816 bytes
Protection: AACS
BD-Java: No
BDInfo: 0.5.6

PLAYLIST REPORT:

Name: 00006.MPLS
Length: 0:04:50 (h:m:s)
Size: 1443237888 bytes
Total Bitrate: 39,77 Mbps

VIDEO:

Codec Bitrate Description
----- ------- -----------
MPEG-4 AVC Video 36001 kbps 1080i / 29,970 fps / 16:9 / High Profile 4.1

AUDIO:

Codec Language Bitrate Description
----- -------- ------- -----------
LPCM Audio English 1536 kbps 2.0 / 48 kHz / 1536 kbps / 16-bit

SUBTITLES:

Codec Language Bitrate Description
----- -------- ------- -----------
Presentation Graphics French 76,124 kbps
Presentation Graphics German 84,624 kbps
Presentation Graphics Spanish 74,888 kbps

FILES:

Name Time In Length Size Total Bitrate
---- ------- ------ ---- -------------
00009.M2TS 0:00:00.000 0:04:50.323 1443237888 39769

CHAPTERS:

Number Time In Length Avg Video Rate Max 1-Sec Rate Max 1-Sec Time Max 5-Sec Rate Max 5-Sec Time Max 10Sec Rate Max 10Sec Time Avg Frame Size Max Frame Size Max Frame Time
------ ------- ------ -------------- -------------- -------------- -------------- -------------- -------------- -------------- -------------- -------------- --------------
1 0:00:00.000 0:04:50.323 36001 kbps 61176 kbps 00:00:00.867 39898 kbps 00:01:17.010 38057 kbps 00:01:11.971 150155 bytes 441682 bytes 00:01:21.648

STREAM DIAGNOSTICS:

File PID Type Codec Language Seconds Bitrate Bytes Packets
---- --- ---- ----- -------- -------------- -------------- ------------- -----
00009.M2TS 4113 (0x1011) 0x1B AVC 290,257 36009 1306498483 7110742
00009.M2TS 4352 (0x1100) 0x80 LPCM eng (English) 290,257 1543 55974660 348390
00009.M2TS 4608 (0x1200) 0x90 PGS fra (French) 290,257 76 2762571 15518
00009.M2TS 4609 (0x1201) 0x90 PGS deu (German) 290,257 85 3071029 17197
00009.M2TS 4610 (0x1202) 0x90 PGS spa (Spanish) 290,257 75 2717720 15282[/code]
<---- END FORUMS PASTE ---->

QUICK SUMMARY:

Disc Title: McGregor - Three Ballets (Chroma/Infra/Limen) 1080i Blu-ray AVC DTS-HD MA 5.1
Disc Size: 31546126816 bytes
Protection: AACS
BD-Java: No
Playlist: 00006.MPLS
Size: 1443237888 bytes
Length: 0:04:50
Total Bitrate: 39,77 Mbps
Video: MPEG-4 AVC Video / 36001 kbps / 1080i / 29,970 fps / 16:9 / High Profile 4.1
Audio: English / LPCM Audio / 2.0 / 48 kHz / 1536 kbps / 16-bit
Subtitle: French / 76,124 kbps
Subtitle: German / 84,624 kbps
Subtitle: Spanish / 74,888 kbps

********************
PLAYLIST: 00002.MPLS
********************

<--- BEGIN FORUMS PASTE --->
[code]Total Video
Title Codec Length Movie Size Disc Size Bitrate Bitrate Main Audio Track Secondary Audio Track
----- ------ ------- -------------- -------------- ------- ------- ------------------ ---------------------
00002.MPLS AVC 0:04:07 1229991936 31546126816 39,79 36,00 LPCM 2.0 1536Kbps (48kHz/16-bit)[/code]
[code]DISC INFO:

Disc Title: McGregor - Three Ballets (Chroma/Infra/Limen) 1080i Blu-ray AVC DTS-HD MA 5.1
Disc Size: 31546126816 bytes
Protection: AACS
BD-Java: No
BDInfo: 0.5.6

PLAYLIST REPORT:

Name: 00002.MPLS
Length: 0:04:07 (h:m:s)
Size: 1229991936 bytes
Total Bitrate: 39,79 Mbps

VIDEO:

Codec Bitrate Description
----- ------- -----------
MPEG-4 AVC Video 36001 kbps 1080i / 29,970 fps / 16:9 / High Profile 4.1

AUDIO:

Codec Language Bitrate Description
----- -------- ------- -----------
LPCM Audio English 1536 kbps 2.0 / 48 kHz / 1536 kbps / 16-bit

SUBTITLES:

Codec Language Bitrate Description
----- -------- ------- -----------
Presentation Graphics French 82,946 kbps
Presentation Graphics German 93,902 kbps
Presentation Graphics Spanish 81,694 kbps

FILES:

Name Time In Length Size Total Bitrate
---- ------- ------ ---- -------------
00005.M2TS 0:00:00.000 0:04:07.280 1229991936 39793

CHAPTERS:

Number Time In Length Avg Video Rate Max 1-Sec Rate Max 1-Sec Time Max 5-Sec Rate Max 5-Sec Time Max 10Sec Rate Max 10Sec Time Avg Frame Size Max Frame Size Max Frame Time
------ ------- ------ -------------- -------------- -------------- -------------- -------------- -------------- -------------- -------------- -------------- --------------
1 0:00:00.000 0:04:07.280 36001 kbps 57952 kbps 00:00:01.067 38240 kbps 00:03:20.166 37119 kbps 00:03:15.161 150155 bytes 390574 bytes 00:00:25.692

STREAM DIAGNOSTICS:

File PID Type Codec Language Seconds Bitrate Bytes Packets
---- --- ---- ----- -------- -------------- -------------- ------------- -----
00005.M2TS 4113 (0x1011) 0x1B AVC 247,214 36011 1112796507 6056268
00005.M2TS 4352 (0x1100) 0x80 LPCM eng (English) 247,214 1543 47676548 296742
00005.M2TS 4608 (0x1200) 0x90 PGS fra (French) 247,214 83 2563867 14426
00005.M2TS 4609 (0x1201) 0x90 PGS deu (German) 247,214 94 2902505 16260
00005.M2TS 4610 (0x1202) 0x90 PGS spa (Spanish) 247,214 82 2525162 14207[/code]
<---- END FORUMS PASTE ---->

QUICK SUMMARY:

Disc Title: McGregor - Three Ballets (Chroma/Infra/Limen) 1080i Blu-ray AVC DTS-HD MA 5.1
Disc Size: 31546126816 bytes
Protection: AACS
BD-Java: No
Playlist: 00002.MPLS
Size: 1229991936 bytes
Length: 0:04:07
Total Bitrate: 39,79 Mbps
Video: MPEG-4 AVC Video / 36001 kbps / 1080i / 29,970 fps / 16:9 / High Profile 4.1
Audio: English / LPCM Audio / 2.0 / 48 kHz / 1536 kbps / 16-bit
Subtitle: French / 82,946 kbps
Subtitle: German / 93,902 kbps
Subtitle: Spanish / 81,694 kbps


 ·  , , FAQ-
:  [ 27--2011 20:58 ]

  

.torrent

.torrent 150 KB


: 29.38 GB
(hash) : f64aec468e618bd2af7355e25eea1d178cd085f6
··
...

: Wayne McGregor: Three Ballets . !

!