Скачать через торрент Большие гонки. Второй сезон Фильм бесплатно в хорошем качестве torrent

Скачивайте на UnionPeer.org фильмы через торрент без регистрации. Новинки кино в хорошем качестве через торрент. На UnionPeer.org можно скачать через торрент фильмы 2014 и 2015 годов. Самые новые фильмы.

Скачать торрент Большие гонки. Второй сезон бесплатно через .torrent фильм мультфильм сериал

Если у вас наблюдаются проблемы со скриншотами, переходом по ссылками, скачиванием торрентов - проблемы в блокировщике рекламы AdBlock. #хорошегоДня!


Статистика раздачи
Размер:  2.31 GB   |    Зарегистрирован:  2 месяца 21 день   |    .torrent скачан:  7 раз   |   
Раздают:  1  
   
Загрузка...
 
Автор Сообщение

Galfimbul

avatar Galfimbul


Большие гонки. Второй сезон

Год выпуска: 2006
Страна: Россия
Жанр: ТВ-Шоу
Продолжительность: 10 * ~ 45 мин

Описание: Премьера игры «Большие Гонки» состоялась во Франции в 1962 году, к 2005 году она стартовала более чем в 30 странах мира. Теперь беспрецедентное шоу выходит и в России. Идея веселых состязаний между странами впервые пришла в голову бывшему Президенту Франции Шарлю де Голлю. Генерал хотел объединить молодежь Европы и укрепить дружбу между ее городами. В последующие годы в игру включалось все больше и больше городов, наций и континентов.

Совместное производство Мистраль Продуксьон, ОАО "Первый канал" и ЗАО "Телекомпания ВИD", 2005 год.
Продюсеры: Мистраль Продуксьон – Ив Лоной и Оливье Шарпентье.
Режиссер: Мистраль Продуксьон – Жюльен Бенедетти;
Основано на оригинальном формате "Интерситиз", придуманном Ги Люксом и Клодом Саваритом, созданном Мистраль Продуксьон, Франция.

Первый сезон
Третий сезон

Качество: TVRip
Формат: WMV
Видео-кодек: Windows Media Video 9
Аудио-кодек: Windows Media Audio 9
Видео: WMV 3 720x576 571 Kbps
Аудио: WMA 2 44100Hz mono 20Kbps
General
Complete name                            : Z:\RuTracker\Bolshie_gonki_2_by_Lavrov\01.04.06.wmv
Format                                   : Windows Media
File size                                : 234 MiB
Duration                                 : 53 min 50 s
Overall bit rate mode                    : Variable
Overall bit rate                         : 607 kb/s
Maximum Overall bit rate                 : 1 529 kb/s
Encoded date                             : UTC 2006-04-01 16:37:06.280

Video
ID                                       : 2
Format                                   : VC-1
Format profile                           : MP@ML
Codec ID                                 : WMV3
Codec ID/Info                            : Windows Media Video 9
Codec ID/Hint                            : WMV3
Description of the codec                 : Windows Media Video 9
Duration                                 : 53 min 50 s
Bit rate mode                            : Variable
Bit rate                                 : 571 kb/s
Width                                    : 720 pixels
Height                                   : 576 pixels
Display aspect ratio                     : 4:3
Frame rate                               : 24.589 FPS
Nominal frame rate                       : 25.000 FPS
Color space                              : YUV
Chroma subsampling                       : 4:2:0
Bit depth                                : 8 bits
Scan type                                : Progressive
Compression mode                         : Lossy
Bits/(Pixel*Frame)                       : 0.056
Stream size                              : 220 MiB (94%)
Language                                 : Russian

Audio
ID                                       : 1
Format                                   : WMA
Format version                           : Version 2
Codec ID                                 : 161
Codec ID/Info                            : Windows Media Audio
Description of the codec                 : Windows Media Audio 9 -  20 kbps, 44 kHz, mono 2-pass CBR
Duration                                 : 53 min 50 s
Bit rate mode                            : Constant
Bit rate                                 : 20.0 kb/s
Channel(s)                               : 1 channel
Sampling rate                            : 44.1 kHz
Bit depth                                : 16 bits
Stream size                              : 7.70 MiB (3%)
Language                                 : Russian


Трекер:  [ 29-Июл-2017 21:42 ]

  

Скачать .torrent

Размер .torrent файла 12 KB


Размер: 2.31 GB
Хэш (hash) релиза: 0d3b34b9b4c602de35d5511ae436f3cbfe4abd9b
Подписка на обновления:

Еще никто не оставлял запись к записи скачать торрент Большие гонки. Второй сезон . Будь первым!

!Обратная связь