Скачать через торрент Сара Сильверман — Пылинка Sarah Silverman — A Speck of Dust Фильм бесплатно в хорошем качестве torrent

Скачивайте на UnionPeer.org фильмы через торрент без регистрации. Новинки кино в хорошем качестве через торрент. На UnionPeer.org можно скачать через торрент фильмы 2014 и 2015 годов. Самые новые фильмы.

Скачать торрент Сара Сильверман — Пылинка Sarah Silverman — A Speck of Dust бесплатно через .torrent фильм мультфильм сериал

Если у вас наблюдаются проблемы со скриншотами, переходом по ссылками, скачиванием торрентов - проблемы в блокировщике рекламы AdBlock. #хорошегоДня!


Статистика раздачи
Размер:  2.17 GB   |    Зарегистрирован:  4 месяца 12 дней   |    .torrent скачан:  17 раз   |   
Раздают:  1  
   
Загрузка...
 
Автор Сообщение

Galfimbul

avatar Galfimbul


Сара Сильверман — Пылинка / Sarah Silverman — A Speck of Dust

Год выпуска: 30.05.2017
Страна: США
Жанр: Stand up
Продолжительность: 01:11:22
Перевод: Многоголосый закадровый — Синема УС
Русские субтитры: нет
Оригинальная аудиодорожка: нет
Режиссер: Лайам Линч
Телеканал: Netflix

Описание: В первом выступлении после угрозы здоровью, Сара Сальверман поделится смесью забавных фактов, грустными истинами и пережитыми моментами.

Доп. информация: Ненормативная лексика присутствует.

Обрезал сколько успел до шаббата, осталось немного ненавязчивой рекламы. Вам таки же ведь хватит ума не играть в казино?

качество: WEBRip
формат: MKV
Видео: MPEG4 Video (H264) 1280x676 23.976fps 4400 kb/s
Аудио: Dolby AC3 48000Hz stereo 384kbps 2 channels
Sarah.Silverman.A.Speck.of.Dust.2017.P.WEB-DL.72Op.mkvFormat : MatroskaFormat version : Version 4 / Version 2File size : 2.17 GiBDuration : 1 h 11 minOverall bit rate mode : VariableOverall bit rate : 4 348 kb/sEncoded date : UTC 2017-07-29 00:53:01Writing application : mkvmerge v6.0.0 ('Coming Up For Air') built on Jan 20 2013 09:52:00Writing library : libebml v1.3.0 + libmatroska v1.4.0

VideoID : 1Format : AVCFormat/Info : Advanced Video CodecFormat profile : High@L4.1Format settings, CABAC : YesFormat settings, ReFrames : 9 framesCodec ID : V_MPEG4/ISO/AVCDuration : 1 h 11 minBit rate mode : VariableBit rate : 3 877 kb/sMaximum bit rate : 4 400 kb/sWidth : 1 280 pixelsHeight : 676 pixelsDisplay aspect ratio : 1.893Frame rate mode : ConstantFrame rate : 23.976 (24000/1001) FPSStandard : ComponentColor space : YUVChroma subsampling : 4:2:0Bit depth : 8 bitsScan type : ProgressiveBits/(Pixel*Frame) : 0.187Stream size : 1.93 GiB (89%)Default : YesForced : NoColor range : LimitedColor primaries : BT.709Transfer characteristics : BT.709Matrix coefficients : BT.709Statistics Tags Issue : mkvmerge v8.3.0 ('Over the Horizon') 64bit 2017-06-06 14:38:09 / mkvmerge v6.0.0 ('Coming Up For Air') built on Jan 20 2013 09:52:00 2017-07-29 00:53:01FromStats_BitRate : 3960195FromStats_Duration : 01:11:53.059000000FromStats_FrameCount : 103410FromStats_StreamSize : 2135069593

AudioID : 2Format : AC-3Format/Info : Audio Coding 3Format settings, Endianness : BigCodec ID : A_AC3Duration : 1 h 11 minBit rate mode : ConstantBit rate : 384 kb/sChannel(s) : 2 channelsChannel positions : Front: L RSampling rate : 48.0 kHzFrame rate : 31.250 FPS (1536 spf)Bit depth : 16 bitsCompression mode : LossyDelay relative to video : 21 msStream size : 196 MiB (9%)Service kind : Complete MainDefault : YesForced : NoStatistics Tags Issue : mkvmerge v8.3.0 ('Over the Horizon') 64bit 2017-06-06 14:38:09 / mkvmerge v6.0.0 ('Coming Up For Air') built on Jan 20 2013 09:52:00 2017-07-29 00:53:01FromStats_BitRate : 384000FromStats_Duration : 01:11:53.056000000FromStats_FrameCount : 134783FromStats_StreamSize : 207026688


Трекер:  [ 29-Июл-2017 18:42 ]

  

Скачать .torrent

Размер .torrent файла 11 KB


Размер: 2.17 GB
Хэш (hash) релиза: f60bfc060803d252eba80661153d4f2d941ff760
Подписка на обновления:

Еще никто не оставлял запись к записи скачать торрент Сара Сильверман — Пылинка Sarah Silverman — A Speck of Dust . Будь первым!

!Обратная связь