Скачать через торрент За двумя зайцами Фильм бесплатно в хорошем качестве torrent

Скачивайте на UnionPeer.org фильмы через торрент без регистрации. Новинки кино в хорошем качестве через торрент. На UnionPeer.org можно скачать через торрент фильмы 2014 и 2015 годов. Самые новые фильмы.

Скачать торрент За двумя зайцами бесплатно через .torrent фильм мультфильм сериал

Если у вас наблюдаются проблемы со скриншотами, переходом по ссылками, скачиванием торрентов - проблемы в блокировщике рекламы AdBlock. #хорошегоДня!


Статистика раздачи
Размер:  6.43 GB   |    Зарегистрирован:  2 месяца 19 дней   |    .torrent скачан:  16 раз   |   
Раздают:  1  
   
Загрузка...
 
Автор Сообщение

Galfimbul

avatar Galfimbul


За двумя зайцами

Страна: СССР
Жанр: мюзикл, комедия
Год выпуска: 1961
Продолжительность: 01:12:00

Перевод: Оригинал
Субтитры: русские
Оригинальная аудиодорожка: русская

Режиссер: Виктор Иванов

В ролях: Олег Борисов, Маргарита Криницына, Николай Яковченко, Анна Кушниренко, Нонна Копержинская, Наталья Наум, Анатолий Юрченко, Константин Ершов, Таисия Литвиненко, Ольга Викланд

Описание: Жил-был молодой бездельник по фамилии Голохвастый. Он держал в Киеве цирюльню, пребывающую в плачевном состоянии, но большую часть времени проводил в кутежах и карточных играх. Проигравшись по крупному, Голохвастый решил поправить дела женитьбой…

Меню: есть, анимированное

Тип релиза: DVD9
Контейнер: DVD-Video

Видео: PAL 4:3 (720x576(0.868)) MPEG Video, 25,000 кадр/сек, 9000 Кбит/сек
Аудио: Russian (Dolby AC-3, 2 ch) 448 Кбит/сек, 48.0 КГц
...93417#results
Общее
Полное имя : Za_2_ZAIZAMI_ [torrents.ru]\VIDEO_TS\VTS_11_1.VOB
Формат : MPEG-PS
Размер файла : 1024 Мбайт
Продолжительность : 14 м. 54 с.
Общий поток : 9603 Кбит/сек

Видео
Идентификатор : 224 (0xE0)
Формат : MPEG Video
Версия формата : Version 2
Профиль формата : Main@Main
Параметр BVOP формата : Да
Параметр матрицы формата : Выборочная
Параметр GOP формата : M=3, N=15
Структура изображения : Frame
Продолжительность : 14 м. 54 с.
Вид битрейта : Постоянный
Битрейт : 9000 Кбит/сек
Ширина : 720 пикселей
Высота : 576 пикселей
Соотношение сторон : 4:3
Частота кадров : 25,000 кадров/сек
Стандарт вещания : PAL
Цветовое пространство : YUV
Субдискретизация насыщенности : 4:2:0
Битовая глубина : 8 бит
Тип развёртки : Чересстрочная
Порядок развёртки : Верхнее поле первое
Метод сжатия : С потерями
Бит/(Пиксели*Кадры) : 0.868
Временной код первого кадра : 00:01:00:00
Оригинал временного кода : Group of pictures header
GOP, открыто/закрыто : Закрыто
Размер потока : 956 Мбайт (93%)

Аудио
Идентификатор : 189 (0xBD)-128 (0x80)
Формат : AC-3
Формат/Информация : Audio Coding 3
Параметр Endianness формата : Big
Режим смешивания : DVD-Video
Продолжительность : 14 м. 54 с.
Вид битрейта : Постоянный
Битрейт : 448 Кбит/сек
Каналы : 2 канала
Расположение каналов : Front: L R
Частота : 48,0 КГц
Частота кадров : 31,250 кадров/сек (1536 spf)
Битовая глубина : 16 бит
Метод сжатия : С потерями
Размер потока : 47,8 Мбайт (5%)
ServiceKind/String : Complete Main

Текст
Идентификатор : 189 (0xBD)-32 (0x20)
Формат : RLE
Формат/Информация : Run-length encoding
Режим смешивания : DVD-Video


Трекер:  [ 29-Июл-2017 14:06 ]

  

Скачать .torrent

Размер .torrent файла 19 KB


Размер: 6.43 GB
Хэш (hash) релиза: f9ce2866cf8f38d0d0d48d70fcbe79edc6a4ba8d
Подписка на обновления:

Торренты, похожие на За двумя зайцами скачать торрент

Форум Название Автор Размер S L Добавлен
Российские фильмы до 2016 ·· За двумя зайцами (Виктор Иванов) [1961, Комедия, Рус, Укр, SATRip] Galfimbul 28310722602.64 GB 0 0 1380488208

23:56

29-Сен-13

Российские фильмы до 2016 ·· За двумя зайцами (Виктор Иванов) [1961, комедия, DVDRip-AVC] Galfimbul 15553402341.45 GB 0 0 1342861140

11:59

21-Июл-12

Еще никто не оставлял запись к записи скачать торрент За двумя зайцами . Будь первым!

!Обратная связь