Скачать через торрент Дамы приглашают кавалеров Фильм бесплатно в хорошем качестве torrent

Скачивайте на UnionPeer.org фильмы через торрент без регистрации. Новинки кино в хорошем качестве через торрент. На UnionPeer.org можно скачать через торрент фильмы 2014 и 2015 годов. Самые новые фильмы.

Скачать торрент Дамы приглашают кавалеров бесплатно через .torrent фильм мультфильм сериал

Если у вас наблюдаются проблемы со скриншотами, переходом по ссылками, скачиванием торрентов - проблемы в блокировщике рекламы AdBlock. #хорошегоДня!


Статистика раздачи
Размер:  4.05 GB   |    Зарегистрирован:  2 месяца 20 дней   |    .torrent скачан:  21 раз   |   
Раздают:  1  
   
Загрузка...
 
Автор Сообщение

Galfimbul

avatar Galfimbul


Дамы приглашают кавалеров

Страна: СССР
Жанр: мелодрама, комедия
Год выпуска: 1980
Продолжительность: 01:11:58

Перевод: Оригинал
Субтитры: нет
Оригинальная аудиодорожка: русская

Режиссер: Иван Киасашвили

В ролях: Марина Неелова, Леонид Куравлев, Татьяна Божок, Николай Караченцов, Наталья Андрейченко, Мария Виноградова, Николай Скоробогатов, Александр Фатюшин, Гия Перадзе, Валерий Носик

Описание: Любимый муж, дети, тихое семейное счастье — об этом мечтает героиня фильма. Она просто создана для такой жизни — однако ей почему-то не везет. Нет, она не ждет сказочного принца, может многое простить. Только вот без любви и понимания обойтись не в силах…

Меню: есть, анимированное

Тип релиза: DVD5
Контейнер: DVD-Video

Видео: PAL 4:3 (720x576(0.463)) MPEG Video, 25,000 кадр/сек, 4800 Кбит/сек
Аудио: Russian (Dolby AC-3, 6 ch) 448 Кбит/сек, 48.0 КГц
Аудио 2: Russian (Dolby AC-3, 1 ch) 224 Кбит/сек, 48.0 КГц
Полная реставрация изображения и звука
Общее
Полное имя : DamyPriKavaler\VIDEO_TS\VTS_02_1.VOB
Формат : MPEG-PS
Размер файла : 1024 Мбайт
Продолжительность : 25 м. 36 с.
Режим общего битрейта : Постоянный
Общий поток : 5588 Кбит/сек

Видео
Идентификатор : 224 (0xE0)
Формат : MPEG Video
Версия формата : Version 2
Профиль формата : Main@Main
Параметр BVOP формата : Да
Параметр матрицы формата : Выборочная
Параметр GOP формата : M=3, N=12
Структура изображения : Frame
Продолжительность : 25 м. 36 с.
Вид битрейта : Постоянный
Битрейт : 4800 Кбит/сек
Ширина : 720 пикселей
Высота : 576 пикселей
Соотношение сторон : 4:3
Частота кадров : 25,000 кадров/сек
Стандарт вещания : PAL
Цветовое пространство : YUV
Субдискретизация насыщенности : 4:2:0
Битовая глубина : 8 бит
Тип развёртки : Чересстрочная
Порядок развёртки : Верхнее поле первое
Метод сжатия : С потерями
Бит/(Пиксели*Кадры) : 0.463
Временной код первого кадра : 00:00:00:01
Оригинал временного кода : Group of pictures header
GOP, открыто/закрыто : Открыто
GOP, открыто/закрыто на первом кадре : Закрыто
Размер потока : 880 Мбайт (86%)

Аудио #1
Идентификатор : 189 (0xBD)-128 (0x80)
Формат : AC-3
Формат/Информация : Audio Coding 3
Параметр Endianness формата : Big
Режим смешивания : DVD-Video
Продолжительность : 25 м. 36 с.
Вид битрейта : Постоянный
Битрейт : 448 Кбит/сек
Каналы : 6 каналов
Расположение каналов : Front: L C R, Side: L R, LFE
Частота : 48,0 КГц
Частота кадров : 31,250 кадров/сек (1536 spf)
Битовая глубина : 16 бит
Метод сжатия : С потерями
Размер потока : 82,1 Мбайт (8%)
ServiceKind/String : Complete Main

Аудио #2
Идентификатор : 189 (0xBD)-129 (0x81)
Формат : AC-3
Формат/Информация : Audio Coding 3
Параметр Endianness формата : Big
Режим смешивания : DVD-Video
Продолжительность : 25 м. 36 с.
Вид битрейта : Постоянный
Битрейт : 224 Кбит/сек
Каналы : 1 канал
Расположение каналов : Front: C
Частота : 48,0 КГц
Частота кадров : 31,250 кадров/сек (1536 spf)
Битовая глубина : 16 бит
Метод сжатия : С потерями
Размер потока : 41,0 Мбайт (4%)
ServiceKind/String : Complete Main


Трекер:  [ 29-Июл-2017 11:36 ]

  

Скачать .torrent

Размер .torrent файла 11 KB


Размер: 4.05 GB
Хэш (hash) релиза: 552aeb1ec69151dca25c9ee1b1ed53ed5642938d
Подписка на обновления:

Еще никто не оставлял запись к записи скачать торрент Дамы приглашают кавалеров . Будь первым!

!Обратная связь