Скачать через торрент Босс-молокосос The Boss Baby Фильм бесплатно в хорошем качестве torrent

Скачивайте на UnionPeer.org фильмы через торрент без регистрации. Новинки кино в хорошем качестве через торрент. На UnionPeer.org можно скачать через торрент фильмы 2014 и 2015 годов. Самые новые фильмы.

Скачать торрент Босс-молокосос The Boss Baby бесплатно через .torrent фильм мультфильм сериал

Если у вас наблюдаются проблемы со скриншотами, переходом по ссылками, скачиванием торрентов - проблемы в блокировщике рекламы AdBlock. #хорошегоДня!


Статистика раздачи
Размер:  10.63 GB   |    Зарегистрирован:  20 дней   |    .torrent скачан:  91 раз   |   
Раздают:  2  
   
Загрузка...
 
Автор Сообщение

Galfimbul

avatar Galfimbul


«Прирождённый лидер»

Босс-молокосос /The Boss Baby

Год выхода: 2017
Жанр: Мультфильм, комедия, семейный
Режиссер: Том МакГрат
Роли озвучивают: Майлз Кристофер Бакши, Алек Болдуин, Эрик Белл мл., Стив Бушеми, Джимми Киммел, Лиза Кудроу, Тоби Магуайр, ВивиЭнн Йи

О фильме:
Эта актуальная во все времена история для взрослых и детей рассказывается от лица семилетнего брата новорожденного — фантазера Тима, который ревнует его к родителям. Но главный герой — совсем не простой ребенок, он обладает лидерскими задатками, уже носит деловые костюмы и во всем видит бизнес-задачу.
Однажды Тим узнает о готовящемся заговоре, целью которого является уничтожение любви, и организовал его директор компании «Puppy Co». Но одному Тиму не по силам его остановить. Мальчику предстоит объединиться со своим «нелюбимым» братом, чтобы спасти родителей и вернуть порядок на Земле.



Страна: США
Студия: DreamWorks Animation
Продолжительность: 01:37:30
Перевод: Профессиональный (полное дублирование) | Blu-ray CEE

Файл
Качество: BDRip 1080p
Формат: MKV
Кодек: MPEG-4 AVC
Видео: 1920x816 (2.35:1), 23,976 fps, MPEG-4 AVC ~ 12,4 Мbps avg, 0.331 bit/pixel
Аудио: DTS, 48 kHz, 6 ch, ~768.00 kbps avg | русский | Blu-ray CEE
Аудио: АС3, 48 kHz, 6 ch, ~448.00 kbps avg | русский | Blu-ray CEE
Аудио: АС3, 48 kHz, 6 ch, ~448.00 kbps avg | украинский | Blu-ray CEE
Аудио: DTS, 48 kHz, 6 ch, ~1509.00 kbps avg | английский | Оригинал
Субтитры: Русские, английские
Общее
Уникальный идентификатор : 225032302265818123768077609764363250863 (0xA94BA51AB5C983609050B9B3A0D92CAF)
Полное имя : The.Boss.Baby.2017.1080p.BluRay.x264.Rus.Ukr.Eng.mkv
Формат : Matroska
Версия формата : Version 4 / Version 2
Размер файла : 10,6 Гбайт
Продолжительность : 1 ч. 37 м.
Общий поток : 15,6 Мбит/сек
Название фильма : Босс-молокосос / The Boss Baby (2017)
Дата кодирования : UTC 2017-07-27 18:33:47
Программа кодирования : mkvmerge v9.7.1 ('Pandemonium') 64bit
Библиотека кодирования : libebml v1.3.4 + libmatroska v1.4.5

Видео
Идентификатор : 1
Формат : AVC
Формат/Информация : Advanced Video Codec
Профиль формата : High@L4.1
Параметр CABAC формата : Да
Параметр ReFrames формата : 5 кадров
Идентификатор кодека : V_MPEG4/ISO/AVC
Продолжительность : 1 ч. 37 м.
Битрейт : 12,4 Мбит/сек
Ширина : 1920 пикселей
Высота : 816 пикселей
Соотношение сторон : 2,35:1
Режим частоты кадров : Постоянный
Частота кадров : 23,976 (24000/1001) кадра/сек
Цветовое пространство : YUV
Субдискретизация насыщенности : 4:2:0
Битовая глубина : 8 бит
Тип развёртки : Прогрессивная
Бит/(Пиксели*Кадры) : 0.331
Размер потока : 8,46 Гбайт (80%)
Заголовок : *** stillet ***
Библиотека кодирования : x264 core 152 r2851 ba24899
Настройки программы : cabac=1 / ref=5 / deblock=1:-3:-3 / analyse=0x3:0x113 / me=umh / subme=10 / psy=1 / psy_rd=1.01:0.00 / mixed_ref=1 / me_range=32 / chroma_me=1 / trellis=2 / 8x8dct=1 / cqm=1 / deadzone=21,11 / fast_pskip=0 / chroma_qp_offset=-1 / threads=12 / lookahead_threads=2 / sliced_threads=0 / nr=0 / decimate=1 / interlaced=0 / bluray_compat=0 / constrained_intra=0 / bframes=8 / b_pyramid=2 / b_adapt=2 / b_bias=0 / direct=3 / weightb=1 / open_gop=0 / weightp=2 / keyint=230 / keyint_min=23 / scenecut=40 / intra_refresh=0 / rc_lookahead=40 / rc=crf / mbtree=0 / crf=13.5 / qcomp=0.64 / qpmin=10 / qpmax=69 / qpstep=4 / vbv_maxrate=62500 / vbv_bufsize=78125 / crf_max=0.0 / nal_hrd=none / filler=0 / ip_ratio=1.30 / pb_ratio=1.20 / aq=1:0.75
Язык : English
Default : Да
Forced : Нет

Аудио #1
Идентификатор : 2
Формат : DTS
Формат/Информация : Digital Theater Systems
Режим : 16
Параметр Endianness формата : Big
Идентификатор кодека : A_DTS
Продолжительность : 1 ч. 37 м.
Вид битрейта : Постоянный
Битрейт : 768 Кбит/сек
Каналы : 6 каналов
Расположение каналов : Front: L C R, Side: L R, LFE
Частота : 48,0 КГц
Частота кадров : 93,750 кадра/сек (512 spf)
Битовая глубина : 24 бит
Метод сжатия : С потерями
Размер потока : 536 Мбайт (5%)
Заголовок : Лицензия - BD CEE
Язык : Russian
Default : Да
Forced : Нет

Аудио #2
Идентификатор : 3
Формат : AC-3
Формат/Информация : Audio Coding 3
Параметр Endianness формата : Big
Идентификатор кодека : A_AC3
Продолжительность : 1 ч. 37 м.
Вид битрейта : Постоянный
Битрейт : 448 Кбит/сек
Каналы : 6 каналов
Расположение каналов : Front: L C R, Side: L R, LFE
Частота : 48,0 КГц
Частота кадров : 31,250 кадров/сек (1536 spf)
Битовая глубина : 16 бит
Метод сжатия : С потерями
Размер потока : 312 Мбайт (3%)
Заголовок : Лицензия - BD CEE
Язык : Russian
Default : Нет
Forced : Нет

Аудио #3
Идентификатор : 4
Формат : AC-3
Формат/Информация : Audio Coding 3
Параметр Endianness формата : Big
Идентификатор кодека : A_AC3
Продолжительность : 1 ч. 37 м.
Вид битрейта : Постоянный
Битрейт : 448 Кбит/сек
Каналы : 6 каналов
Расположение каналов : Front: L C R, Side: L R, LFE
Частота : 48,0 КГц
Частота кадров : 31,250 кадров/сек (1536 spf)
Битовая глубина : 16 бит
Метод сжатия : С потерями
Размер потока : 312 Мбайт (3%)
Заголовок : Лицензия - BD CEE
Язык : Ukrainian
Default : Нет
Forced : Нет

Аудио #4
Идентификатор : 5
Формат : DTS
Формат/Информация : Digital Theater Systems
Профиль формата : ES Matrix / Core
Режим : 16
Параметр Endianness формата : Big
Идентификатор кодека : A_DTS
Продолжительность : 1 ч. 37 м.
Вид битрейта : Постоянный
Битрейт : 1509 Кбит/сек
Каналы : 7 каналов / 6 каналов
Расположение каналов : Front: L C R, Side: L R, Back: C, LFE / Front: L C R, Side: L R, LFE
Частота : 48,0 КГц
Частота кадров : 93,750 кадра/сек (512 spf)
Битовая глубина : 24 бит
Метод сжатия : С потерями
Размер потока : 1,03 Гбайт (10%)
Заголовок : Original
Язык : English
Default : Нет
Forced : Нет

Текст #1
Идентификатор : 6
Формат : UTF-8
Идентификатор кодека : S_TEXT/UTF8
Идентификатор кодека/Информация : UTF-8 Plain Text
Продолжительность : 1 ч. 19 м.
Битрейт : 0 бит/сек
ElementCount : 21
Размер потока : 437 байт (0%)
Заголовок : Forced
Язык : Russian
Default : Нет
Forced : Нет

Текст #2
Идентификатор : 7
Формат : UTF-8
Идентификатор кодека : S_TEXT/UTF8
Идентификатор кодека/Информация : UTF-8 Plain Text
Продолжительность : 1 ч. 36 м.
Битрейт : 59 бит/сек
ElementCount : 1568
Размер потока : 42,1 Кбайт (0%)
Заголовок : Full
Язык : English
Default : Да
Forced : Нет

Текст #3
Идентификатор : 8
Формат : UTF-8
Идентификатор кодека : S_TEXT/UTF8
Идентификатор кодека/Информация : UTF-8 Plain Text
Продолжительность : 1 ч. 37 м.
Битрейт : 102 бит/сек
ElementCount : 2015
Размер потока : 73,3 Кбайт (0%)
Заголовок : SDH
Язык : English
Default : Нет
Forced : Нет

Меню
00:00:00.000 : en:Chapter 1
00:03:45.892 : en:Chapter 2
00:08:58.288 : en:Chapter 3
00:11:45.914 : en:Chapter 4
00:14:59.565 : en:Chapter 5
00:19:38.219 : en:Chapter 6
00:22:52.788 : en:Chapter 7
00:28:27.247 : en:Chapter 8
00:30:26.116 : en:Chapter 9
00:33:45.482 : en:Chapter 10
00:36:57.257 : en:Chapter 11
00:39:18.356 : en:Chapter 12
00:42:35.344 : en:Chapter 13
00:46:20.611 : en:Chapter 14
00:51:37.720 : en:Chapter 15
00:53:25.285 : en:Chapter 16
00:56:28.719 : en:Chapter 17
00:59:35.405 : en:Chapter 18
01:04:03.173 : en:Chapter 19
01:08:15.758 : en:Chapter 20
01:11:29.911 : en:Chapter 21
01:16:25.247 : en:Chapter 22
01:23:10.110 : en:Chapter 23
01:27:36.960 : en:Chapter 24
Источник http://arutor.org

Трекер:  [ 27-Июл-2017 22:20 ]

  

Скачать .torrent

Размер .torrent файла 27 KB


Размер: 10.63 GB
Хэш (hash) релиза: 7f63a052a11d0bb22ab4b5e297bba58f94a9d11d
Подписка на обновления:

Торренты, похожие на Босс-молокосос The Boss Baby скачать торрент

Форум Название Автор Размер S L Добавлен
Мультфильмы до 2016 ·· Босс-молокосос / The Boss Baby (Том МакГрат / Tom McGrath) [2017, США, мультфильм, комедия, семейный, BDRip 720p] Dub (Rus, Ukr), Sub (Rus, Ukr) Galfimbul 61299803415.71 GB 0 0 1501499180

14:06

31-Июл-17

Мультфильмы до 2016 ·· Босс-молокосос / The Boss Baby (Том МакГрат / Tom McGrath) [2017, Мультфильм, комедия, семейный, BDRip] Dub + Sub Galfimbul 15648923861.46 GB 0 0 1501412823

14:07

30-Июл-17

Мультфильмы до 2016 ·· Босс-молокосос / The Boss Baby (Том МакГрат / Tom McGrath) [2017, США, мультфильм, комедия, семейный, BDRip 1080p] Dub + Sub Rus, Eng + Original Eng Galfimbul 1189070178011.07 GB 0 0 1501410997

13:36

30-Июл-17

Мультфильмы до 2016 ·· Босс-молокосос / The Boss Baby (Том МакГрат / Tom McGrath) [2017, США, мультфильм, комедия, семейный, BDRip 720p] Dub + Sub Rus, Eng + Original Eng Galfimbul 58019792585.4 GB 0 0 1501410993

13:36

30-Июл-17

Мультфильмы 2016-2017 (Новинки мультфильмов) ·· Босс-молокосос / The Boss Baby (Том МакГрат / Tom McGrath) [2017, США, мультфильм, комедия, семейный, BDRip 720p] Лицензия Galfimbul 62073185955.78 GB 0 0 1501180868

21:41

27-Июл-17

Мультфильмы 2016-2017 (Новинки мультфильмов) ·· Босс-молокосос / The Boss Baby (Том МакГрат / Tom McGrath) [2017, США, мультфильм, комедия, семейный, BDRip] Лицензия Galfimbul 15695769601.46 GB 3 0 1501177928

20:52

27-Июл-17

Мультфильмы до 2016 ·· Босс-молокосос / The Boss Baby (Том МакГрат / Tom McGrath) [2017, США, мультфильм, комедия, семейный, BDRip-AVC] Dub + Rus Sub Galfimbul 783094385747 MB 5 0 1499737005

04:36

11-Июл-17

Мультфильмы 2016-2017 (Новинки мультфильмов) ·· Босс-молокосос / The Boss Baby (Том МакГрат / Tom McGrath) [2017, США, Мультипликация, BDRip 1080p] iTunes Galfimbul 61488082465.73 GB 4 0 1499664620

08:30

10-Июл-17

Мультфильмы 2016-2017 (Новинки мультфильмов) ·· Босс-молокосос / The Boss Baby (Том МакГрат / Tom McGrath) [2017, США, Мультипликация, HDRip] iTunes Galfimbul 14678179841.37 GB 10 9 1499663430

08:10

10-Июл-17

Мультфильмы 2016-2017 (Новинки мультфильмов) ·· Босс-молокосос / The Boss Baby (Том МакГрат / Tom McGrath) [2017, США, Мультипликация, BDRip 720p] iTunes Galfimbul 38005273593.54 GB 4 9 1499663417

08:10

10-Июл-17

Мультфильмы 2016-2017 (Новинки мультфильмов) ·· Босс-молокосос / The Boss Baby (Том МакГрат / Tom McGrath) [2017, США, Мультипликация, HDRip] Galfimbul 14684115651.37 GB 0 0 1499628024

22:20

9-Июл-17

Мультфильмы до 2016 ·· Босс-молокосос / The Boss Baby (Том МакГрат / Tom McGrath) [2017, США, Мультипликация, WEB-DLRip] Dub Galfimbul 780429312744 MB 2 0 1495209320

18:55

19-Май-17

Мультфильмы до 2016 ·· Босс-молокосос / The Boss Baby (Том МакГрат / Tom McGrath) [2017, США, Мультипликация, WEB-DL 1080p] Dub Galfimbul 38607650483.6 GB 0 0 1495177569

10:06

19-Май-17

Мультфильмы до 2016 ·· Босс-молокосос / The Boss Baby (Том МакГрат / Tom McGrath) [2017, США, Мультфильм, приключения, комедия, семейный, WEB-DLRip] Dub + Rus Sub Galfimbul 15678802111.46 GB 4 0 1495153603

03:26

19-Май-17

Мультфильмы 2016-2017 (Новинки мультфильмов) ·· Босс-молокосос / The Boss Baby (Том МакГрат) [2017, мультфильм, комедия, семейный, CAMRip] Galfimbul 798724644762 MB 4 1 1490404247

04:10

25-Мар-17

Еще никто не оставлял запись к записи скачать торрент Босс-молокосос The Boss Baby . Будь первым!

!Обратная связь